ВАЛЛ·И / WALL·E [2008, Мультфильм, Приключения, Семейный, Фантастика, BDRip 720p] - Скачать торрент бесплатно

Модераторы: Модераторы Фильмы, мультфильмы, Союз Риперов

Поделиться ВКонтакте Поделиться Facebook Поделиться Twitter Поделиться Mail.RU
АвторСообщение
Download more
Аватара пользователя
Капитан
Капитан
 
Сообщения: 356
Зарегистрирован: 19 ноя 2016, 16:36
Откуда: г. Астана, Казахстан
Карма: 121
-1-

Сообщение Download more » 09 сен 2017, 00:20

ВАЛЛ·И / WALL·E [2008, Мультфильм, Приключения, Семейный, Фантастика, BDRip 720p] - Скачать торрент

Название: ВАЛЛ·И
Оригинальное название: WALL·E

Дата выхода: 2008
Страна: США
Студия: Pixar Animation Studios, Walt Disney Pictures
Жанр: Мультфильм, Приключения, Семейный, Фантастика
Продолжительность: 01:38:41
Перевод: Профессиональный (полное дублирование) Blu-ray CEE
Роли озвучивали: Андрей Лёвин, Марианна Мокшина, Сергей Русскин, Марк Макаренков, Станислав Концевич
Субтитры: русские
Режиссёр: Эндрю Стэнтон
Режиссёр: Andrew Stanton
Описание: Робот ВАЛЛ·И из года в год прилежно трудится на опустевшей Земле, очищая нашу планету от гор мусора, которые оставили после себя улетевшие в космос люди. Он и не представляет, что совсем скоро произойдут невероятные события, благодаря которым он встретит друзей, поднимется к звездам и даже сумеет изменить к лучшему своих бывших хозяев, совсем позабывших родную Землю.
Дополнительно:
Rip by Есмуханов Данияр Исламбекович | daniyar.esmuhanov
Качество: BDRip 720p
Формат файла: MKV
Аудио кодек: AC3
Видео: 1280x528, 23,976 (24000/1001) кадра/сек, ~827 Кбит/сек
Аудио: kHz, AC3 Dolby Digital, 3/2 (L,C,R,l,r) + LFE ch, 448-Профессиональный (полное дублирование) Blu-ray CEE
MediaInfo: Видео
Идентификатор : 1
Формат : AVC
Формат/Информация : Advanced Video Codec
Профиль формата : High@L4
Параметр CABAC формата : Да
Параметр RefFrames формата : 6 кадров
Идентификатор кодека : V_MPEG4/ISO/AVC
Продолжительность : 1 ч. 38 м.
Битрейт : 827 Кбит/сек
Ширина : 1280 пикселей
Высота : 528 пикселей
Соотношение сторон : 2,40:1
Режим частоты кадров : Постоянный
Частота кадров : 23,976 (24000/1001) кадра/сек
Цветовое пространство : YUV
Субдискретизация насыщенности : 4:2:0
Битовая глубина : 8 бит
Тип развёртки : Прогрессивная
Бит/(Пиксели*Кадры) : 0.051
Размер потока : 582 Мбайт (65%)
Заголовок : Исходник: Blu-ray Disc | Автор рипа: Есмуханов Данияр Исламбекович | daniyar.esmuhanov
Библиотека кодирования : x264 core 120 r2164 da19765
Настройки программы : cabac=1 / ref=6 / deblock=1:-2:-1 / analyse=0x3:0x133 / me=umh / subme=9 / psy=1 / psy_rd=1.00:0.15 / mixed_ref=1 / me_range=16 / chroma_me=1 / trellis=2 / 8x8dct=1 / cqm=0 / deadzone=21,11 / fast_pskip=1 / chroma_qp_offset=-3 / threads=12 / sliced_threads=0 / nr=0 / decimate=1 / interlaced=0 / bluray_compat=0 / constrained_intra=0 / bframes=3 / b_pyramid=2 / b_adapt=2 / b_bias=0 / direct=3 / weightb=1 / open_gop=0 / weightp=2 / keyint=240 / keyint_min=23 / scenecut=40 / intra_refresh=0 / rc_lookahead=60 / rc=2pass / mbtree=1 / bitrate=829 / ratetol=1.0 / qcomp=0.60 / qpmin=10 / qpmax=51 / qpstep=4 / cplxblur=20.0 / qblur=0.5 / ip_ratio=1.40 / aq=1:1.00
Язык : English
Default : Да
Forced : Да

Аудио
Идентификатор : 2
Формат : AC-3
Формат/Информация : Audio Coding 3
Параметр Endianness формата : Big
Идентификатор кодека : A_AC3
Продолжительность : 1 ч. 38 м.
Вид битрейта : Постоянный
Битрейт : 448 Кбит/сек
Каналы : 6 каналов
Расположение каналов : Front: L C R, Side: L R, LFE
Частота : 48,0 КГц
Частота кадров : 31,250 кадров/сек (1536 SPF)
Битовая глубина : 16 бит
Метод сжатия : С потерями
Размер потока : 316 Мбайт (35%)
Заголовок : Профессиональный (полное дублирование) Blu-ray CEE
Язык : Russian
ServiceKind/String : Complete Main
Default : Да
Forced : Да

Текст
Идентификатор : 3
Формат : UTF-8
Идентификатор кодека : S_TEXT/UTF8
Идентификатор кодека/Информация : UTF-8 Plain Text
Продолжительность : 1 ч. 25 м.
Битрейт : 33 бит/сек
ElementCount : 482
Размер потока : 21,3 Кбайт (0%)
Язык : Russian
Default : Нет
Forced : Нет


Как качать, Как раздавать - Правила и инструкции
Торрент09 сен 2017, 00:19 [ 09 сен 2017, 00:19 ]

СКАЧАТЬ с просмотром рекламы
СтатусПроверен Zakol
.torrent скачан104 раз
Размер899.62 МБ (943 324 620)
Скорость отдачи 100 кБ/с, стою на раздаче до появления 5-10 сидов.
Основа философии BitTorrent - "скачал сам, дай скачать торрент другому".


daniyar.esmuhanov@gmail.com

Shamil17

 

Сообщения: 1

Зарегистрирован: 31 янв 2017, 14:10

Карма: 0

Сообщение Shamil17» 09 сен 2017, 17:36

Подскажите не опотному , вес для 720 не слишком маленький? Спасибо

Download more

Капитан

Аватара пользователя
 

Сообщения: 356

Зарегистрирован: 19 ноя 2016, 16:36

Откуда: г. Астана, Казахстан

Карма: 121
-1-

Сообщение Download more» 09 сен 2017, 19:21

Shamil17 писал(а):Подскажите не опотному , вес для 720 не слишком маленький? Спасибо

Не слишком
Скорость отдачи 100 кБ/с, стою на раздаче до появления 5-10 сидов.
Основа философии BitTorrent - "скачал сам, дай скачать торрент другому".


daniyar.esmuhanov@gmail.com


Вернуться в Зарубежные мультфильмы



Кто сейчас на конференции

Сейчас этот форум просматривают: Bing [Bot]

Ресурс не предоставляет электронные версии произведений, а занимается лишь коллекционированием и каталогизацией ссылок, присылаемых и публикуемых на форуме нашими читателями. Если вы являетесь правообладателем какого-либо представленного материала и не желаете чтобы ссылка на него находилась в нашем каталоге, свяжитесь с нами и мы незамедлительно удалим её. Файлы для обмена на трекере предоставлены пользователями сайта, и администрация не несёт ответственности за их содержание. Просьба не заливать файлы, защищенные авторскими правами, а также файлы нелегального содержания!