Тарзан / Tarzan [1999, Мультфильм, Мелодрама, Приключения, Семейный, BDRip 720p] - Скачать торрент бесплатно

Модераторы: Модераторы Фильмы, мультфильмы, Союз Риперов

Поделиться ВКонтакте Поделиться Facebook Поделиться Twitter Поделиться Mail.RU
АвторСообщение
Download more
Аватара пользователя
Модератор Фильмов
Модератор Фильмов
 
Сообщения: 481
Зарегистрирован: 19 ноя 2016, 17:36
Откуда: г. Астана, Казахстан
Карма: 230
-2--2-

Сообщение Download more » 12 сен 2017, 19:09

Тарзан / Tarzan [1999, Мультфильм, Мелодрама, Приключения, Семейный, BDRip 720p] - Скачать торрент

Название: Тарзан
Оригинальное название: Tarzan

Дата выхода: 1999
Страна: США
Студия: Walt Disney Pictures
Жанр: Мультфильм, Мелодрама, Приключения, Семейный
Продолжительность: 1:28:22
Перевод: Профессиональный (полное дублирование) Blu-ray CEE
Роли озвучивали: Владимир Летенков, Елена Терновая, Татьяна Михалевкина, Александр Баргман, Александр Демьяненко
Субтитры: русские
Режиссёр: Крис Бак, Кевин Лима
Режиссёр: Chris Buck, Kevin Lima
Описание: Тарзан вырос среди горилл, в таинственных джунглях, где не ступала нога человека. Враждебное царство диких животных долго не хотело признавать хрупкого мальчика.

Вскоре на глазах у всех слабый малыш превратился в храброго юношу и стал быстрее пантеры, сильнее тигра, зорче орла. Но когда Тарзан становится настоящим королем джунглей, происходит неожиданная встреча, которая полностью меняет его жизнь…
Дополнительно:
Rip by Есмуханов Данияр Исламбекович | daniyar.esmuhanov
Качество: BDRip 720p
Формат файла: MKV
Видео кодек: x264
Аудио кодек: AC3
Видео: 1280x720, MPEG4/ISO/AVC, High@L4, 23,976 (24000/1001) кадра/сек, ~ 3854 Кбит/сек
Аудио: kHz, AC3 Dolby Digital, 3/2 (L,C,R,l,r) + LFE ch, 448-Профессиональный (полное дублирование) Blu-ray CEE
MediaInfo: Видео
Идентификатор : 1
Формат : AVC
Формат/Информация : Advanced Video Codec
Профиль формата : High@L4
Параметр CABAC формата : Да
Параметр RefFrames формата : 6 кадров
Идентификатор кодека : V_MPEG4/ISO/AVC
Продолжительность : 1 ч. 28 м.
Переменный битрейт : 5854 Кбит/сек | 854 Кбит/сек | 3854 Кбит/сек
Битрейт : 3854 Кбит/сек
Ширина : 1280 пикселей
Высота : 720 пикселей
Соотношение сторон : 16:9
Режим частоты кадров : Постоянный
Частота кадров : 23,976 (24000/1001) кадра/сек
Цветовое пространство : YUV
Субдискретизация насыщенности : 4:2:0
Битовая глубина : 8 бит
Тип развёртки : Прогрессивная
Бит/(Пиксели*Кадры) : 0.039
Размер потока : 540 Мбайт (66%)
Заголовок : Исходник: Blu-ray Disc | Автор рипа: Есмуханов Данияр Исламбекович | daniyar.esmuhanov
Библиотека кодирования : x264 core 120 r2164 da19765
Настройки программы : cabac=1 / ref=6 / deblock=1:-2:-1 / analyse=0x3:0x133 / me=umh / subme=9 / psy=1 / psy_rd=1.00:0.15 / mixed_ref=1 / me_range=16 / chroma_me=1 / trellis=2 / 8x8dct=1 / cqm=0 / deadzone=21,11 / fast_pskip=1 / chroma_qp_offset=-3 / threads=6 / sliced_threads=0 / nr=0 / decimate=1 / interlaced=0 / bluray_compat=0 / constrained_intra=0 / bframes=3 / b_pyramid=2 / b_adapt=2 / b_bias=0 / direct=3 / weightb=1 / open_gop=0 / weightp=2 / keyint=240 / keyint_min=23 / scenecut=40 / intra_refresh=0 / rc_lookahead=60 / rc=2pass / mbtree=1 / bitrate=3854 / ratetol=1.0 / qcomp=0.60 / qpmin=10 / qpmax=51 / qpstep=4 / cplxblur=20.0 / qblur=0.5 / ip_ratio=1.40 / aq=1:1.00
Язык : English
Default : Да
Forced : Да

Аудио
Идентификатор : 2
Формат : AC-3
Формат/Информация : Audio Coding 3
Параметр Endianness формата : Big
Идентификатор кодека : A_AC3
Продолжительность : 1 ч. 28 м.
Вид битрейта : Постоянный
Битрейт : 448 Кбит/сек
Каналы : 6 каналов
Расположение каналов : Front: L C R, Side: L R, LFE
Частота : 48,0 КГц
Частота кадров : 31,250 кадров/сек (1536 SPF)
Битовая глубина : 16 бит
Метод сжатия : С потерями
Размер потока : 283 Мбайт (34%)
Заголовок : Профессиональный (полное дублирование) Blu-ray CEE
Язык : Russian
ServiceKind/String : Complete Main
Default : Да
Forced : Да

Текст
Идентификатор : 3
Формат : UTF-8
Идентификатор кодека : S_TEXT/UTF8
Идентификатор кодека/Информация : UTF-8 Plain Text
Продолжительность : 1 ч. 21 м.
Битрейт : 53 бит/сек
ElementCount : 816
Размер потока : 32,2 Кбайт (0%)
Язык : Russian
Default : Нет
Forced : Нет


Как качать, Как раздавать - Правила и инструкции
Торрент12 сен 2017, 19:09 [ 12 сен 2017, 19:09 ]

СКАЧАТЬ с просмотром рекламы
СтатусПроверен Zakol
.torrent скачан240 раз
Размер824 МБ (864 031 574)

Скорость отдачи 100 кБ/с, стою на раздаче до появления 5-10 сидов.
Основа философии BitTorrent - "Скачал сам?! Дай скачать другим, не уходи с раздачи!!!".


Вернуться в Зарубежные мультфильмы



Кто сейчас на конференции

Сейчас этот форум просматривают: нет зарегистрированных пользователей

Ресурс не предоставляет электронные версии произведений, а занимается лишь коллекционированием и каталогизацией ссылок, присылаемых и публикуемых на форуме нашими читателями. Если вы являетесь правообладателем какого-либо представленного материала и не желаете чтобы ссылка на него находилась в нашем каталоге, свяжитесь с нами и мы незамедлительно удалим её. Файлы для обмена на трекере предоставлены пользователями сайта, и администрация не несёт ответственности за их содержание. Просьба не заливать файлы, защищенные авторскими правами, а также файлы нелегального содержания!