Суперсемейка / The Incredibles [ 2004, Мультфильм, Боевик, Приключения, Семейный, BDRip 720p] - Скачать торрент бесплатно

Модераторы: Модераторы Фильмы, мультфильмы, Союз Риперов

Поделиться ВКонтакте Поделиться Facebook Поделиться Twitter Поделиться Mail.RU
АвторСообщение
Download more
Аватара пользователя
Капитан
Капитан
 
Сообщения: 356
Зарегистрирован: 19 ноя 2016, 16:36
Откуда: г. Астана, Казахстан
Карма: 121
-1-

Сообщение Download more » 08 сен 2017, 17:22

Суперсемейка / The Incredibles [ 2004, Мультфильм, Боевик, Приключения, Семейный, BDRip 720p] - Скачать торрент

Название: Суперсемейка
Оригинальное название: The Incredibles

Дата выхода: 2004
Страна: США
Студия: Pixar Animation Studios, Walt Disney Pictures
Жанр: Мультфильм, Боевик, Приключения, Семейный
Продолжительность: 01:55:25
Перевод: Профессиональный (полное дублирование) Blu-ray CEE
Роли озвучивали: Олег Белов, Александра Сидорук, Сергей Козик, Михаил Хрусталев, Андрей Тенетко
Субтитры: русские
Режиссёр: Брэд Бёрд
Режиссёр: Brad Bird
Описание: История семьи супергероев, члены которой уже отошли от больших дел и предпочитают жить непримечательной жизнью обычных землян. В прошлом все они обладали сверхъестественными способностями и относительно легко справлялись с мировым злом.

Но в один прекрасный день папаше и его домочадцам приходится вновь облачиться в прорезиненные костюмы супергероев (а для этого нужно срочно сбросить лишние килограммы!) и в очередной раз спасти человечество от таинственного злодея…
Дополнительно:
Rip by Есмуханов Данияр Исламбекович | daniyar.esmuhanov
Качество: BDRip 720p
Формат файла: MKV
Аудио кодек: AC3
Видео: 1280x536, 23,976 (24000/1001) кадра/сек, ~787 Кбит/сек
Аудио: kHz, AC3 Dolby Digital, 3/2 (L,C,R,l,r) + LFE ch, 448-Профессиональный (полное дублирование) Blu-ray CEE
MediaInfo: Видео
Идентификатор : 1
Формат : AVC
Формат/Информация : Advanced Video Codec
Профиль формата : High@L3.1
Параметр CABAC формата : Да
Параметр RefFrames формата : 4 кадра
Идентификатор кодека : V_MPEG4/ISO/AVC
Продолжительность : 1 ч. 55 м.
Битрейт : 787 Кбит/сек
Ширина : 1280 пикселей
Высота : 536 пикселей
Соотношение сторон : 2,40:1
Режим частоты кадров : Постоянный
Частота кадров : 23,976 (24000/1001) кадра/сек
Цветовое пространство : YUV
Субдискретизация насыщенности : 4:2:0
Битовая глубина : 8 бит
Тип развёртки : Прогрессивная
Бит/(Пиксели*Кадры) : 0.047
Размер потока : 645 Мбайт (63%)
Заголовок : Исходник: Blu-ray Disc | Автор рипа: Есмуханов Данияр Исламбекович | daniyar.esmuhanov
Библиотека кодирования : x264 core 120 r2164 da19765
Настройки программы : cabac=1 / ref=4 / deblock=1:-2:-1 / analyse=0x3:0x113 / me=umh / subme=8 / psy=1 / psy_rd=1.00:0.00 / mixed_ref=1 / me_range=12 / chroma_me=1 / trellis=1 / 8x8dct=1 / cqm=0 / deadzone=21,11 / fast_pskip=1 / chroma_qp_offset=-2 / threads=3 / sliced_threads=0 / nr=0 / decimate=1 / interlaced=0 / bluray_compat=0 / constrained_intra=0 / bframes=16 / b_pyramid=2 / b_adapt=1 / b_bias=0 / direct=3 / weightb=1 / open_gop=0 / weightp=2 / keyint=240 / keyint_min=23 / scenecut=40 / intra_refresh=0 / rc=2pass / mbtree=0 / bitrate=781 / ratetol=1.0 / qcomp=0.60 / qpmin=10 / qpmax=51 / qpstep=4 / cplxblur=20.0 / qblur=0.5 / ip_ratio=1.40 / pb_ratio=1.30 / aq=2:1.00
Язык : English
Default : Да
Forced : Да

Аудио
Идентификатор : 2
Формат : AC-3
Формат/Информация : Audio Coding 3
Параметр Endianness формата : Big
Идентификатор кодека : A_AC3
Продолжительность : 1 ч. 55 м.
Вид битрейта : Постоянный
Битрейт : 448 Кбит/сек
Каналы : 6 каналов
Расположение каналов : Front: L C R, Side: L R, LFE
Частота : 48,0 КГц
Частота кадров : 31,250 кадров/сек (1536 SPF)
Битовая глубина : 16 бит
Метод сжатия : С потерями
Размер потока : 370 Мбайт (36%)
Заголовок : Профессиональный (полное дублирование) Blu-ray CEE
Язык : Russian
ServiceKind/String : Complete Main
Default : Да
Forced : Да

Текст #1
Идентификатор : 3
Формат : UTF-8
Идентификатор кодека : S_TEXT/UTF8
Идентификатор кодека/Информация : UTF-8 Plain Text
Продолжительность : 1 ч. 46 м.
Битрейт : 1 бит/сек
ElementCount : 36
Размер потока : 1,09 Кбайт (0%)
Заголовок : Форсированные
Язык : Russian
Default : Да
Forced : Да

Текст #2
Идентификатор : 4
Формат : UTF-8
Идентификатор кодека : S_TEXT/UTF8
Идентификатор кодека/Информация : UTF-8 Plain Text
Продолжительность : 1 ч. 47 м.
Битрейт : 94 бит/сек
ElementCount : 1156
Размер потока : 74,3 Кбайт (0%)
Язык : Russian
Default : Нет
Forced : Нет

Текст #3
Идентификатор : 5
Формат : UTF-8
Идентификатор кодека : S_TEXT/UTF8
Идентификатор кодека/Информация : UTF-8 Plain Text
Продолжительность : 1 ч. 47 м.
Битрейт : 100 бит/сек
ElementCount : 1180
Размер потока : 78,7 Кбайт (0%)
Язык : Russian
Default : Нет
Forced : Нет


Как качать, Как раздавать - Правила и инструкции
Торрент08 сен 2017, 17:22 [ 08 сен 2017, 17:22 ]

СКАЧАТЬ с просмотром рекламы
СтатусПроверен Zakol
.torrent скачан130 раз
Размер1016.29 МБ (1 065 655 280)
Скорость отдачи 100 кБ/с, стою на раздаче до появления 5-10 сидов.
Основа философии BitTorrent - "скачал сам, дай скачать торрент другому".


daniyar.esmuhanov@gmail.com

Master Chief

Аватара пользователя
 

Сообщения: 581

Зарегистрирован: 23 июл 2017, 19:20

Откуда: РОССИЯ!!! ✌ ツ ✌

Карма: 331
-2--2-

Сообщение Master Chief» 08 сен 2017, 19:25

Download more благодарствую!!!! отличный мульт!!!качество!!! *круто *круто *круто


Вернуться в Зарубежные мультфильмы



Кто сейчас на конференции

Сейчас этот форум просматривают: Bing [Bot]

Ресурс не предоставляет электронные версии произведений, а занимается лишь коллекционированием и каталогизацией ссылок, присылаемых и публикуемых на форуме нашими читателями. Если вы являетесь правообладателем какого-либо представленного материала и не желаете чтобы ссылка на него находилась в нашем каталоге, свяжитесь с нами и мы незамедлительно удалим её. Файлы для обмена на трекере предоставлены пользователями сайта, и администрация не несёт ответственности за их содержание. Просьба не заливать файлы, защищенные авторскими правами, а также файлы нелегального содержания!