Спирит: Душа прерий / Spirit: Stallion of the Cimarron [2002, Мультфильм, Вестерн, Приключения, Семейный, BDRip 720p] - Скачать торрент бесплатно

Модераторы: Модераторы Фильмы, мультфильмы, Союз Риперов

Поделиться ВКонтакте Поделиться Facebook Поделиться Twitter Поделиться Mail.RU
АвторСообщение
Download more
Аватара пользователя
Капитан
Капитан
 
Сообщения: 356
Зарегистрирован: 19 ноя 2016, 16:36
Откуда: г. Астана, Казахстан
Карма: 121
-1-

Сообщение Download more » 09 сен 2017, 21:39

Спирит: Душа прерий / Spirit: Stallion of the Cimarron [2002, Мультфильм, Вестерн, Приключения, Семейный, BDRip 720p] - Скачать торрент

Название: Спирит: Душа прерий
Оригинальное название: Spirit: Stallion of the Cimarron

Дата выхода: 2002
Страна: США
Студия: DreamWorks Animation
Жанр: Мультфильм, Вестерн, Приключения, Семейный
Продолжительность: 01:23:28
Перевод: Профессиональный (полное дублирование) Blu-ray CEE
Роли озвучивали: Денис Беспалый, Олег Куценко, Михаил Тихонов, Юрий Маляров, Юрий Саранцев
Субтитры: русские
Режиссёр: Келли Эсбери, Лорна Кук
Режиссёр: Kelly Asbury, Lorna Cook
Описание: Этот приключенческий мультфильм рассказывает историю дикого жеребца мустанга Спирита, путешествующего по территории всей Америки. Храбрый Спирит заводит дружбу с молодым индейцем Ручейком и находит любовь с красивой кобылой по имени Гроза.

Все счастливы до тех пор, пока на жеребца не положили глаз люди, которые хотят сделать из него военную лошадь…
Дополнительно:
Rip by Есмуханов Данияр Исламбекович | daniyar.esmuhanov
Качество: BDRip 720p
Формат файла: MKV
Аудио кодек: AC3
Видео: 1280x720, 23,976 (24000/1001) кадра/сек, ~857 Кбит/сек
Аудио: kHz, AC3 Dolby Digital, 3/2 (L,C,R,l,r) + LFE ch, 448-Профессиональный (полное дублирование) Blu-ray CEE
MediaInfo: Видео
Идентификатор : 1
Формат : AVC
Формат/Информация : Advanced Video Codec
Профиль формата : High@L3.1
Параметр CABAC формата : Да
Параметр RefFrames формата : 5 кадров
Идентификатор кодека : V_MPEG4/ISO/AVC
Продолжительность : 1 ч. 23 м.
Битрейт : 857 Кбит/сек
Ширина : 1280 пикселей
Высота : 720 пикселей
Соотношение сторон : 16:9
Режим частоты кадров : Постоянный
Частота кадров : 23,976 (24000/1001) кадра/сек
Цветовое пространство : YUV
Субдискретизация насыщенности : 4:2:0
Битовая глубина : 8 бит
Тип развёртки : Прогрессивная
Бит/(Пиксели*Кадры) : 0.039
Размер потока : 510 Мбайт (66%)
Заголовок : Исходник: Blu-ray Disc | Автор рипа: Есмуханов Данияр Исламбекович | daniyar.esmuhanov
Библиотека кодирования : x264 core 116 r2074 2641b9e
Настройки программы : cabac=1 / ref=5 / deblock=1:-2:-1 / analyse=0x3:0x113 / me=umh / subme=8 / psy=1 / psy_rd=1.00:0.00 / mixed_ref=1 / me_range=16 / chroma_me=1 / trellis=1 / 8x8dct=1 / cqm=0 / deadzone=21,11 / fast_pskip=1 / chroma_qp_offset=-2 / threads=12 / sliced_threads=0 / nr=0 / decimate=1 / interlaced=0 / bluray_compat=0 / constrained_intra=0 / bframes=3 / b_pyramid=2 / b_adapt=2 / b_bias=0 / direct=3 / weightb=1 / open_gop=0 / weightp=2 / keyint=250 / keyint_min=23 / scenecut=40 / intra_refresh=0 / rc_lookahead=50 / rc=2pass / mbtree=1 / bitrate=856 / ratetol=1.0 / qcomp=0.60 / qpmin=10 / qpmax=51 / qpstep=4 / cplxblur=20.0 / qblur=0.5 / ip_ratio=1.40 / aq=1:1.00
Язык : English
Default : Да
Forced : Да

Аудио
Идентификатор : 2
Формат : AC-3
Формат/Информация : Audio Coding 3
Параметр Endianness формата : Big
Идентификатор кодека : A_AC3
Продолжительность : 1 ч. 23 м.
Вид битрейта : Постоянный
Битрейт : 448 Кбит/сек
Каналы : 6 каналов
Расположение каналов : Front: L C R, Side: L R, LFE
Частота : 48,0 КГц
Частота кадров : 31,250 кадров/сек (1536 SPF)
Битовая глубина : 16 бит
Метод сжатия : С потерями
Размер потока : 267 Мбайт (34%)
Заголовок : Профессиональный (полное дублирование) Blu-ray CEE
Язык : Russian
ServiceKind/String : Complete Main
Default : Да
Forced : Да

Текст #1
Идентификатор : 3
Формат : UTF-8
Идентификатор кодека : S_TEXT/UTF8
Идентификатор кодека/Информация : UTF-8 Plain Text
Продолжительность : 1 ч. 15 м.
Битрейт : 37 бит/сек
ElementCount : 413
Размер потока : 20,8 Кбайт (0%)
Язык : Russian
Default : Нет
Forced : Нет

Текст #2
Идентификатор : 4
Формат : UTF-8
Идентификатор кодека : S_TEXT/UTF8
Идентификатор кодека/Информация : UTF-8 Plain Text
Продолжительность : 1 ч. 15 м.
Битрейт : 33 бит/сек
ElementCount : 396
Размер потока : 18,8 Кбайт (0%)
Язык : Russian
Default : Нет
Forced : Нет

Меню
00:00:00.000 : en:Young Spirit
00:07:32.410 : en:Leader Of His Herd
00:11:29.855 : en:The Journey begins
00:18:15.010 : en:Spirit Meets Man
00:20:40.280 : en:A Strange New Place
00:23:22.359 : en:You Can't Break Me
00:25:35.492 : en:This One Seemed Different
00:30:11.184 : en:The Great Escape
00:35:24.831 : en:Indian Camp
00:38:47.950 : en:Rain's World
00:42:06.148 : en:Torn Two Ways
00:43:52.546 : en:"Go Home"
00:48:10.637 : en:The Calvalry Attacks
00:53:29.289 : en:Remember Who You Are
00:57:18.810 : en:Master Plan
01:00:49.437 : en:Breaking Free
01:04:26.863 : en:Leap of Faith
01:11:14.561 : en:Farewell My Friend
01:14:07.234 : en:The Return
01:16:12.109 : en:End Credits


Как качать, Как раздавать - Правила и инструкции
Торрент09 сен 2017, 21:38 [ 09 сен 2017, 21:38 ]

СКАЧАТЬ с просмотром рекламы
СтатусПроверен Zakol
.torrent скачан192 раз
Размер778.89 МБ (816 723 014)
Скорость отдачи 100 кБ/с, стою на раздаче до появления 5-10 сидов.
Основа философии BitTorrent - "скачал сам, дай скачать торрент другому".


daniyar.esmuhanov@gmail.com

Вернуться в Зарубежные мультфильмы



Кто сейчас на конференции

Сейчас этот форум просматривают: Bing [Bot]

Ресурс не предоставляет электронные версии произведений, а занимается лишь коллекционированием и каталогизацией ссылок, присылаемых и публикуемых на форуме нашими читателями. Если вы являетесь правообладателем какого-либо представленного материала и не желаете чтобы ссылка на него находилась в нашем каталоге, свяжитесь с нами и мы незамедлительно удалим её. Файлы для обмена на трекере предоставлены пользователями сайта, и администрация не несёт ответственности за их содержание. Просьба не заливать файлы, защищенные авторскими правами, а также файлы нелегального содержания!