Мулан / Mulan [1998, Мультфильм, Военный, Приключения, Семейный, Фэнтези, BDRip 720p] - Скачать торрент бесплатно

Модераторы: Модераторы Фильмы, мультфильмы, Союз Риперов

Поделиться ВКонтакте Поделиться Facebook Поделиться Twitter Поделиться Mail.RU
АвторСообщение
Download more
Аватара пользователя
Капитан
Капитан
 
Сообщения: 356
Зарегистрирован: 19 ноя 2016, 16:36
Откуда: г. Астана, Казахстан
Карма: 121
-1-

Сообщение Download more » 12 сен 2017, 01:54

Мулан / Mulan [1998, Мультфильм, Военный, Приключения, Семейный, Фэнтези, BDRip 720p] - Скачать торрент

Название: Мулан
Оригинальное название: Mulan

Дата выхода: 1998
Страна: США
Студия: Walt Disney Pictures
Жанр: Мультфильм, Военный, Приключения, Семейный, Фэнтези
Продолжительность: 01:27:43
Перевод: Профессиональный (полное дублирование) Blu-ray CEE
Роли озвучивали: Валерий Кухарешин (Mushu), Сауле Искакова (Mulan), Николай Буров (Shan-Yu), Валерий Кравченко (Yao), Татьяна Иванова (Fa Li), Нина Потаповская (Grandmother Fa), Владимир Летенков (Chi Fu), Людмила Ксенофонтова (The Matchmaker), Александр Демьяненко (The Emperor), Игорь Ефимов (Fa Zhou), Геннадий Смирнов (Shang), Аркадий Волгин (General Li), Валерий Никитенко (First Ancestor), Алексей Гурьев (Chien-Po)
Субтитры: русские
Режиссёр: Тони Бэнкрофт, Бэрри Кук
Режиссёр: Tony Bancroft, Barry Cook
Описание: Для великого народа наступили тяжелые времена: на страну напало воинственное племя гуннов. Переодевшись в мужскую одежду, Мулан присоединяется к другим воинам и отправляется в опасный поход к подножию заснеженных гор. Ее сопровождает забавный дракончик Мушу, который больше похож на маленькую собачку, чем на мифическое чудовище.

Пытаясь скрыть тайну, они попадают в забавные ситуации и не подозревают, что их секрет вот — вот раскроется!…
Дополнительно:
Rip by Есмуханов Данияр Исламбекович | daniyar.esmuhanov
Качество: BDRip 720p
Формат файла: MKV
Аудио кодек: AC3
Видео: 1280x752, 23,976 (24000/1001) кадра/сек, ~1017 Кбит/сек
Аудио: kHz, AC3 Dolby Digital, 3/2 (L,C,R,l,r) + LFE ch, 448-Профессиональный (полное дублирование) Blu-ray CEE
MediaInfo: Видео
Идентификатор : 1
Формат : AVC
Формат/Информация : Advanced Video Codec
Профиль формата : High@L4
Параметр CABAC формата : Да
Параметр RefFrames формата : 8 кадров
Идентификатор кодека : V_MPEG4/ISO/AVC
Продолжительность : 1 ч. 27 м.
Битрейт : 1017 Кбит/сек
Ширина : 1280 пикселей
Высота : 752 пикселя
Соотношение сторон : 1,702
Режим частоты кадров : Постоянный
Частота кадров : 23,976 (24000/1001) кадра/сек
Цветовое пространство : YUV
Субдискретизация насыщенности : 4:2:0
Битовая глубина : 8 бит
Тип развёртки : Прогрессивная
Бит/(Пиксели*Кадры) : 0.044
Размер потока : 637 Мбайт (69%)
Заголовок : Исходник: Blu-ray Disc | Автор рипа: Есмуханов Данияр Исламбекович | daniyar.esmuhanov
Библиотека кодирования : x264 core 129 r2245 bc13772
Настройки программы : cabac=1 / ref=8 / deblock=1:0:0 / analyse=0x3:0x113 / me=hex / subme=7 / psy=1 / psy_rd=1.00:0.00 / mixed_ref=1 / me_range=16 / chroma_me=1 / trellis=1 / 8x8dct=1 / cqm=0 / deadzone=21,11 / fast_pskip=1 / chroma_qp_offset=-2 / threads=6 / lookahead_threads=1 / sliced_threads=0 / nr=0 / decimate=1 / interlaced=0 / bluray_compat=0 / constrained_intra=0 / bframes=8 / b_pyramid=2 / b_adapt=1 / b_bias=0 / direct=1 / weightb=1 / open_gop=0 / weightp=2 / keyint=240 / keyint_min=23 / scenecut=40 / intra_refresh=0 / rc_lookahead=40 / rc=2pass / mbtree=1 / bitrate=1015 / ratetol=1.0 / qcomp=0.60 / qpmin=10 / qpmax=51 / qpstep=4 / cplxblur=20.0 / qblur=0.5 / ip_ratio=1.40 / aq=1:1.00
Язык : English
Default : Да
Forced : Да

Аудио
Идентификатор : 2
Формат : AC-3
Формат/Информация : Audio Coding 3
Параметр Endianness формата : Big
Идентификатор кодека : A_AC3
Продолжительность : 1 ч. 27 м.
Вид битрейта : Постоянный
Битрейт : 448 Кбит/сек
Каналы : 6 каналов
Расположение каналов : Front: L C R, Side: L R, LFE
Частота : 48,0 КГц
Частота кадров : 31,250 кадров/сек (1536 SPF)
Битовая глубина : 16 бит
Метод сжатия : С потерями
Размер потока : 281 Мбайт (31%)
Заголовок : Профессиональный (полное дублирование) Blu-ray CEE
Язык : Russian
ServiceKind/String : Complete Main
Default : Да
Forced : Да

Текст
Идентификатор : 3
Формат : UTF-8
Идентификатор кодека : S_TEXT/UTF8
Идентификатор кодека/Информация : UTF-8 Plain Text
Продолжительность : 1 ч. 20 м.
Битрейт : 69 бит/сек
ElementCount : 881
Размер потока : 41,0 Кбайт (0%)
Язык : Russian
Default : Нет
Forced : Нет

Меню
00:00:00.000 : en:Chapter 00
00:00:59.184 : en:Chapter 01
00:03:06.352 : en:Chapter 02
00:06:07.075 : en:Chapter 03
00:09:06.420 : en:Chapter 04
00:11:55.005 : en:Chapter 05
00:14:13.811 : en:Chapter 06
00:17:22.916 : en:Chapter 07
00:20:24.932 : en:Chapter 08
00:23:14.142 : en:Chapter 09
00:25:26.274 : en:Chapter 10
00:26:56.948 : en:Chapter 11
00:29:10.582 : en:Chapter 12
00:32:54.347 : en:Chapter 13
00:34:49.212 : en:Chapter 14
00:37:31.249 : en:Chapter 15
00:42:07.608 : en:Chapter 16
00:45:49.872 : en:Chapter 17
00:46:45.552 : en:Chapter 18

Как качать, Как раздавать - Правила и инструкции
Торрент12 сен 2017, 01:54 [ 12 сен 2017, 01:54 ]

СКАЧАТЬ с просмотром рекламы
СтатусПроверен Zakol
.torrent скачан73 раз
Размер919.85 МБ (964 530 589)
Скорость отдачи 100 кБ/с, стою на раздаче до появления 5-10 сидов.
Основа философии BitTorrent - "скачал сам, дай скачать торрент другому".


daniyar.esmuhanov@gmail.com

анастасия2108

Созерцатель

 

Сообщения: 34

Зарегистрирован: 25 сен 2010, 12:39

Карма: 0

Сообщение анастасия2108» 12 сен 2017, 09:15

Спасибо, очень классный мультик!


Вернуться в Зарубежные мультфильмы



Кто сейчас на конференции

Сейчас этот форум просматривают: Bing [Bot]

Ресурс не предоставляет электронные версии произведений, а занимается лишь коллекционированием и каталогизацией ссылок, присылаемых и публикуемых на форуме нашими читателями. Если вы являетесь правообладателем какого-либо представленного материала и не желаете чтобы ссылка на него находилась в нашем каталоге, свяжитесь с нами и мы незамедлительно удалим её. Файлы для обмена на трекере предоставлены пользователями сайта, и администрация не несёт ответственности за их содержание. Просьба не заливать файлы, защищенные авторскими правами, а также файлы нелегального содержания!