Мулан 2 / Mulan 2 [ 2004, Мультфильм, Боевик, Комедия, Приключения, Семейный, BDRip 720p] - Скачать торрент бесплатно

Модераторы: Модераторы Фильмы, мультфильмы, Союз Риперов

Поделиться ВКонтакте Поделиться Facebook Поделиться Twitter Поделиться Mail.RU
АвторСообщение
Download more
Аватара пользователя
Модератор Фильмов
Модератор Фильмов
 
Сообщения: 481
Зарегистрирован: 19 ноя 2016, 17:36
Откуда: г. Астана, Казахстан
Карма: 230
-2--2-

Сообщение Download more » 12 сен 2017, 14:21

Мулан 2 / Mulan 2 [ 2004, Мультфильм, Боевик, Комедия, Приключения, Семейный, BDRip 720p] - Скачать торрент

Название: Мулан 2
Оригинальное название: Mulan 2

Дата выхода: 2004
Страна: США
Студия: Walt Disney Pictures
Жанр: Мультфильм, Боевик, Комедия, Приключения, Семейный
Продолжительность: 01:18:41
Перевод: Профессиональный (полное дублирование) Blu-ray CEE
Роли озвучивали: Сауле Искакова, Геннадий Смирнов, Валерий Кухарешин, Ольга Аршанская, Андрей Пирог, Мария Соснякова, Юлия Рудина и т.д.
Субтитры: русские
Режиссёр: Даррел Руни, Линн Сауферлэнд
Режиссёр: Darrell Rooney, Lynne Southerland
Описание: Новое увлекательное путешествие с уже знакомыми героями — отважной китайской воительницей Мулан и ее верным другом Ли Шанем. На сей раз им, храбрым победителям монгольских орд, предстоит самая ответственная миссия в жизни. Это… свадьба.

Но, прежде чем Мулан и Ли Шань поженятся, они должны позаботиться и о чужом счастье, доставив трех китайских принцесс их женихам. Легкая задача? Не очень, если вам «помогает» самый легкомысленный дракон в мире Мушу, а коварные монголы уже затевают новые козни!..
Дополнительно:
Rip by Есмуханов Данияр Исламбекович | daniyar.esmuhanov
Качество: BDRip 720p
Формат файла: MKV
Аудио кодек: AC3
Видео: 1280x720, 23,976 (24000/1001) кадра/сек, ~1087 Кбит/сек
Аудио: kHz, AC3 Dolby Digital, 3/2 (L,C,R,l,r) + LFE ch, 448-Профессиональный (полное дублирование) Blu-ray CEE
MediaInfo: Видео
Идентификатор : 1
Формат : AVC
Формат/Информация : Advanced Video Codec
Профиль формата : High@L4
Параметр CABAC формата : Да
Параметр RefFrames формата : 5 кадров
Идентификатор кодека : V_MPEG4/ISO/AVC
Продолжительность : 1 ч. 18 м.
Битрейт : 1087 Кбит/сек
Ширина : 1280 пикселей
Высота : 720 пикселей
Соотношение сторон : 16:9
Режим частоты кадров : Постоянный
Частота кадров : 23,976 (24000/1001) кадра/сек
Цветовое пространство : YUV
Субдискретизация насыщенности : 4:2:0
Битовая глубина : 8 бит
Тип развёртки : Прогрессивная
Бит/(Пиксели*Кадры) : 0.049
Размер потока : 613 Мбайт (71%)
Заголовок : Исходник: Blu-ray Disc | Автор рипа: Есмуханов Данияр Исламбекович | daniyar.esmuhanov
Библиотека кодирования : x264 core 133 r2334 a3ac64b
Настройки программы : cabac=1 / ref=5 / deblock=1:-1:-1 / analyse=0x3:0x113 / me=umh / subme=7 / psy=1 / psy_rd=1.00:0.00 / mixed_ref=1 / me_range=16 / chroma_me=1 / trellis=2 / 8x8dct=1 / cqm=0 / deadzone=21,11 / fast_pskip=1 / chroma_qp_offset=-2 / threads=24 / lookahead_threads=4 / sliced_threads=0 / nr=0 / decimate=1 / interlaced=0 / bluray_compat=0 / constrained_intra=0 / bframes=3 / b_pyramid=0 / b_adapt=1 / b_bias=0 / direct=3 / weightb=1 / open_gop=0 / weightp=2 / keyint=240 / keyint_min=23 / scenecut=40 / intra_refresh=0 / rc_lookahead=40 / rc=2pass / mbtree=1 / bitrate=1089 / ratetol=1.0 / qcomp=0.60 / qpmin=10 / qpmax=51 / qpstep=4 / cplxblur=20.0 / qblur=0.5 / vbv_maxrate=20000 / vbv_bufsize=25000 / nal_hrd=none / ip_ratio=1.40 / aq=1:1.00
Язык : English
Default : Да
Forced : Да

Аудио
Идентификатор : 2
Формат : AC-3
Формат/Информация : Audio Coding 3
Параметр Endianness формата : Big
Идентификатор кодека : A_AC3
Продолжительность : 1 ч. 18 м.
Вид битрейта : Постоянный
Битрейт : 448 Кбит/сек
Каналы : 6 каналов
Расположение каналов : Front: L C R, Side: L R, LFE
Частота : 48,0 КГц
Частота кадров : 31,250 кадров/сек (1536 SPF)
Битовая глубина : 16 бит
Метод сжатия : С потерями
Размер потока : 252 Мбайт (29%)
Заголовок : Профессиональный (полное дублирование) Blu-ray CEE
Язык : Russian
ServiceKind/String : Complete Main
Default : Да
Forced : Да

Текст
Идентификатор : 3
Формат : UTF-8
Идентификатор кодека : S_TEXT/UTF8
Идентификатор кодека/Информация : UTF-8 Plain Text
Продолжительность : 1 ч. 12 м.
Битрейт : 105 бит/сек
ElementCount : 985
Размер потока : 56,6 Кбайт (0%)
Язык : Russian
Default : Нет
Forced : Нет

Меню
00:00:00.000 : en:Chapter 00
00:03:12.317 : en:Chapter 01
00:08:30.843 : en:Chapter 02
00:12:12.022 : en:Chapter 03
00:14:15.354 : en:Chapter 04
00:17:16.201 : en:Chapter 05
00:19:57.196 : en:Chapter 06
00:25:07.088 : en:Chapter 07
00:31:51.659 : en:Chapter 08
00:38:00.569 : en:Chapter 09
00:42:18.953 : en:Chapter 10
00:51:12.944 : en:Chapter 11
01:02:08.725 : en:Chapter 12
01:04:57.977 : en:Chapter 13
01:10:14.043 : en:Chapter 14
01:13:23.774 : en:Chapter 15


Как качать, Как раздавать - Правила и инструкции
Торрент12 сен 2017, 14:21 [ 12 сен 2017, 14:21 ]

СКАЧАТЬ с просмотром рекламы
СтатусПроверен Zakol
.torrent скачан75 раз
Размер866.17 МБ (908 240 359)

Скорость отдачи 100 кБ/с, стою на раздаче до появления 5-10 сидов.
Основа философии BitTorrent - "Скачал сам?! Дай скачать другим, не уходи с раздачи!!!".


Вернуться в Зарубежные мультфильмы



Кто сейчас на конференции

Сейчас этот форум просматривают: нет зарегистрированных пользователей

Ресурс не предоставляет электронные версии произведений, а занимается лишь коллекционированием и каталогизацией ссылок, присылаемых и публикуемых на форуме нашими читателями. Если вы являетесь правообладателем какого-либо представленного материала и не желаете чтобы ссылка на него находилась в нашем каталоге, свяжитесь с нами и мы незамедлительно удалим её. Файлы для обмена на трекере предоставлены пользователями сайта, и администрация не несёт ответственности за их содержание. Просьба не заливать файлы, защищенные авторскими правами, а также файлы нелегального содержания!