Легенды ночных стражей / Legend of the Guardians: The Owls of Ga’Hoole [2010, Мультфильм, Боевик, Приключения, Семейный, Фантастика, BDRip 720p] - Скачать торрент бесплатно

Модераторы: Модераторы Фильмы, мультфильмы, Союз Риперов

Поделиться ВКонтакте Поделиться Facebook Поделиться Twitter Поделиться Mail.RU
АвторСообщение
Download more
Аватара пользователя
Капитан
Капитан
 
Сообщения: 356
Зарегистрирован: 19 ноя 2016, 16:36
Откуда: г. Астана, Казахстан
Карма: 121
-1-

Сообщение Download more » 08 сен 2017, 00:26

Легенды ночных стражей / Legend of the Guardians: The Owls of Ga’Hoole [2010, Мультфильм, Боевик, Приключения, Семейный, Фантастика, BDRip 720p] - Скачать торрент

Название: Легенды ночных стражей
Оригинальное название: Legend of the Guardians: The Owls of Ga’Hoole

Дата выхода: 2010
Страна: США
Студия: Warner Bros. Pictures
Жанр: Мультфильм, Боевик, Приключения, Семейный, Фантастика
Продолжительность: 01:36:47
Перевод: Профессиональный (полное дублирование) Blu-ray CEE
Роли озвучивали: Прохор Чеховской, Диомид Виноградов, Александр Груздев, Любовь Германова, Александр Воеводин
Субтитры: русские
Режиссёр: Зак Снайдер
Режиссёр: Zack Snyder
Описание: Миром, в котором уже не осталось людей, правят совы… добрые… злые… как и всегда! В волшебном лесу — королевстве сов Тито — на Великом Дереве Га`Хуул, где разумные совы живут в гармонии, наступают мрачные времена. Королевство подвергается страшной опасности со стороны соседних жестоких правителей, и эта опасность грозит уничтожить привычное мироздание.
Дополнительно:
Rip by Есмуханов Данияр Исламбекович | daniyar.esmuhanov
Качество: BDRip 720p
Формат файла: MKV
Аудио кодек: AC3
Видео: 1280x544, 23,976 (24000/1001) кадра/сек, ~847 Кбит/сек
Аудио: kHz, AC3 Dolby Digital, 3/2 (L,C,R,l,r) + LFE ch, 448-Профессиональный (полное дублирование) Blu-ray CEE
MediaInfo: Видео
Идентификатор : 1
Формат : AVC
Формат/Информация : Advanced Video Codec
Профиль формата : High@L4
Параметр CABAC формата : Да
Параметр RefFrames формата : 6 кадров
Идентификатор кодека : V_MPEG4/ISO/AVC
Продолжительность : 1 ч. 36 м.
Битрейт : 847 Кбит/сек
Ширина : 1280 пикселей
Высота : 544 пикселя
Соотношение сторон : 2,35:1
Режим частоты кадров : Постоянный
Частота кадров : 23,976 (24000/1001) кадра/сек
Цветовое пространство : YUV
Субдискретизация насыщенности : 4:2:0
Битовая глубина : 8 бит
Тип развёртки : Прогрессивная
Бит/(Пиксели*Кадры) : 0.050
Размер потока : 583 Мбайт (65%)
Заголовок : Исходник: Blu-ray Disc | Автор рипа: Есмуханов Данияр Исламбекович | daniyar.esmuhanov
Библиотека кодирования : x264 core 120 r2164 da19765
Настройки программы : cabac=1 / ref=6 / deblock=1:-2:-1 / analyse=0x3:0x133 / me=umh / subme=9 / psy=1 / psy_rd=1.00:0.15 / mixed_ref=1 / me_range=16 / chroma_me=1 / trellis=2 / 8x8dct=1 / cqm=0 / deadzone=21,11 / fast_pskip=1 / chroma_qp_offset=-3 / threads=12 / sliced_threads=0 / nr=0 / decimate=1 / interlaced=0 / bluray_compat=0 / constrained_intra=0 / bframes=3 / b_pyramid=2 / b_adapt=2 / b_bias=0 / direct=3 / weightb=1 / open_gop=0 / weightp=2 / keyint=240 / keyint_min=23 / scenecut=40 / intra_refresh=0 / rc_lookahead=60 / rc=2pass / mbtree=1 / bitrate=842 / ratetol=1.0 / qcomp=0.60 / qpmin=10 / qpmax=51 / qpstep=4 / cplxblur=20.0 / qblur=0.5 / ip_ratio=1.40 / aq=1:1.00
Язык : English
Default : Да
Forced : Да

Аудио
Идентификатор : 2
Формат : AC-3
Формат/Информация : Audio Coding 3
Параметр Endianness формата : Big
Идентификатор кодека : A_AC3
Продолжительность : 1 ч. 36 м.
Вид битрейта : Постоянный
Битрейт : 448 Кбит/сек
Каналы : 6 каналов
Расположение каналов : Front: L C R, Side: L R, LFE
Частота : 48,0 КГц
Частота кадров : 31,250 кадров/сек (1536 SPF)
Битовая глубина : 16 бит
Метод сжатия : С потерями
Размер потока : 310 Мбайт (35%)
Заголовок : Профессиональный (полное дублирование) Blu-ray CEE
Язык : Russian
ServiceKind/String : Complete Main
Default : Да
Forced : Да

Текст #1
Идентификатор : 3
Формат : UTF-8
Идентификатор кодека : S_TEXT/UTF8
Идентификатор кодека/Информация : UTF-8 Plain Text
Продолжительность : 1 ч. 35 м.
Битрейт : 79 бит/сек
ElementCount : 1321
Размер потока : 55,8 Кбайт (0%)
Язык : Russian
Default : Нет
Forced : Нет

Текст #2
Идентификатор : 4
Формат : UTF-8
Идентификатор кодека : S_TEXT/UTF8
Идентификатор кодека/Информация : UTF-8 Plain Text
Продолжительность : 1 ч. 29 м.
Битрейт : 84 бит/сек
ElementCount : 1320
Размер потока : 55,5 Кбайт (0%)
Язык : Russian
Default : Нет
Forced : Нет

Меню
00:00:00.000 : en:Chapter 1
00:10:52.026 : en:Chapter 2
00:20:10.417 : en:Chapter 3
00:30:07.138 : en:Chapter 4
00:40:01.273 : en:Chapter 5
00:49:57.828 : en:Chapter 6
01:00:34.297 : en:Chapter 7
01:09:45.180 : en:Chapter 8
01:18:58.149 : en:Chapter 9
01:28:04.195 : en:Chapter 10


Как качать, Как раздавать - Правила и инструкции
Торрент08 сен 2017, 00:26 [ 08 сен 2017, 00:26 ]

СКАЧАТЬ с просмотром рекламы
СтатусПроверен Zakol
.torrent скачан311 раз
Размер894.37 МБ (937 816 699)
Скорость отдачи 100 кБ/с, стою на раздаче до появления 5-10 сидов.
Основа философии BitTorrent - "скачал сам, дай скачать торрент другому".


daniyar.esmuhanov@gmail.com

Вернуться в Зарубежные мультфильмы



Кто сейчас на конференции

Сейчас этот форум просматривают: Bing [Bot]

Ресурс не предоставляет электронные версии произведений, а занимается лишь коллекционированием и каталогизацией ссылок, присылаемых и публикуемых на форуме нашими читателями. Если вы являетесь правообладателем какого-либо представленного материала и не желаете чтобы ссылка на него находилась в нашем каталоге, свяжитесь с нами и мы незамедлительно удалим её. Файлы для обмена на трекере предоставлены пользователями сайта, и администрация не несёт ответственности за их содержание. Просьба не заливать файлы, защищенные авторскими правами, а также файлы нелегального содержания!