Храбрая сердцем / Brave [ 2012, Мультфильм, Комедия, Приключения, Семейный, Фантастика, BDRip 720p] - Скачать торрент бесплатно

Модераторы: Модераторы Фильмы, мультфильмы, Союз Риперов

Поделиться ВКонтакте Поделиться Facebook Поделиться Twitter Поделиться Mail.RU
АвторСообщение
Download more
Аватара пользователя
Модератор Фильмов
Модератор Фильмов
 
Сообщения: 481
Зарегистрирован: 19 ноя 2016, 17:36
Откуда: г. Астана, Казахстан
Карма: 230
-2--2-

Сообщение Download more » 09 сен 2017, 17:53

Храбрая сердцем / Brave [ 2012, Мультфильм, Комедия, Приключения, Семейный, Фантастика, BDRip 720p] - Скачать торрент

Название: Храбрая сердцем
Оригинальное название: Brave

Дата выхода: 2012
Страна: США
Студия: Pixar Animation Studios, Walt Disney Pictures
Жанр: Мультфильм, Комедия, Приключения, Семейный, Фантастика
Продолжительность: 01:34:12
Перевод: Профессиональный (полное дублирование) Blu-ray CEE
Роли озвучивали: Лиза Арзамасова, Татьяна Веденеева, Михаил Шуфутинский, Александр Аравушкин, Александр Ромашов, Юрий Герцман, Анна Потебня, Василий Ракша, Андрей Матвеев, Анвар Халилулаев и др.
Субтитры: русские
Режиссёр: Марк Эндрюс, Бренда Чэпман, Стив Пурселл
Режиссёр: Mark Andrews, Brenda Chapman, Steve Purcell
Описание: Испокон веков мифы и легенды окутывают загадочной пеленой живописные отроги Шотландских гор. Искусной лучнице Мериде приходится выбирать свой путь в жизни самостоятельно, и однажды она отказывается следовать древним традициям королевства, бросая вызов могущественным шотландским кланам и их предводителям: нескладному лорду МакГаффину, угрюмому лорду Макинтошу и сварливому лорду Дингволлу. Неосторожные поступки Мериды грозят повергнуть королевство в хаос, и тогда она отправляется за советом к эксцентричной отшельнице, которая вместо помощи накладывает на Мериду опасное заклятье. Юной принцессе предстоит полагаться только на собственную храбрость, чтобы преодолеть могущественное волшебство и победить самого страшного зверя из тех, что водятся в горных долинах...
Дополнительно: | | - Рекомендуется присутствие родителей
Rip by Есмуханов Данияр Исламбекович | daniyar.esmuhanov
Качество: BDRip 720p
Формат файла: MKV
Аудио кодек: AC3
Видео: 1280x536, 23,976 (24000/1001) кадра/сек, ~807 Кбит/сек
Аудио: kHz, AC3 Dolby Digital, 3/2 (L,C,R,l,r) + LFE ch, 448-Профессиональный (полное дублирование) Blu-ray CEE
MediaInfo: Видео
Идентификатор : 1
Формат : AVC
Формат/Информация : Advanced Video Codec
Профиль формата : High@L4
Параметр CABAC формата : Да
Параметр RefFrames формата : 5 кадров
Идентификатор кодека : V_MPEG4/ISO/AVC
Продолжительность : 1 ч. 33 м.
Битрейт : 807 Кбит/сек
Ширина : 1280 пикселей
Высота : 536 пикселей
Соотношение сторон : 2,40:1
Режим частоты кадров : Постоянный
Частота кадров : 23,976 (24000/1001) кадра/сек
Цветовое пространство : YUV
Субдискретизация насыщенности : 4:2:0
Битовая глубина : 8 бит
Тип развёртки : Прогрессивная
Бит/(Пиксели*Кадры) : 0.049
Размер потока : 536 Мбайт (64%)
Заголовок : Исходник: Blu-ray Disc | Автор рипа: Есмуханов Данияр Исламбекович | daniyar.esmuhanov
Библиотека кодирования : x264 core 125 r2200 999b753
Настройки программы : cabac=1 / ref=5 / deblock=1:0:0 / analyse=0x3:0x133 / me=umh / subme=9 / psy=1 / psy_rd=1.00:0.00 / mixed_ref=1 / me_range=16 / chroma_me=1 / trellis=2 / 8x8dct=1 / cqm=0 / deadzone=21,11 / fast_pskip=1 / chroma_qp_offset=-2 / threads=12 / lookahead_threads=2 / sliced_threads=0 / nr=0 / decimate=1 / interlaced=0 / bluray_compat=0 / constrained_intra=0 / bframes=3 / b_pyramid=2 / b_adapt=2 / b_bias=2 / direct=3 / weightb=1 / open_gop=0 / weightp=2 / keyint=240 / keyint_min=23 / scenecut=40 / intra_refresh=0 / rc_lookahead=60 / rc=2pass / mbtree=1 / bitrate=801 / ratetol=1.0 / qcomp=0.60 / qpmin=10 / qpmax=51 / qpstep=4 / cplxblur=20.0 / qblur=0.5 / ip_ratio=1.40 / aq=1:1.00
Язык : English
Default : Да
Forced : Да

Аудио
Идентификатор : 2
Формат : AC-3
Формат/Информация : Audio Coding 3
Параметр Endianness формата : Big
Идентификатор кодека : A_AC3
Продолжительность : 1 ч. 34 м.
Вид битрейта : Постоянный
Битрейт : 448 Кбит/сек
Каналы : 6 каналов
Расположение каналов : Front: L C R, Side: L R, LFE
Частота : 48,0 КГц
Частота кадров : 31,250 кадров/сек (1536 SPF)
Битовая глубина : 16 бит
Метод сжатия : С потерями
Размер потока : 302 Мбайт (36%)
Заголовок : Профессиональный (полное дублирование) Blu-ray CEE
Язык : Russian
ServiceKind/String : Complete Main
Default : Да
Forced : Да

Текст
Идентификатор : 3
Формат : UTF-8
Идентификатор кодека : S_TEXT/UTF8
Идентификатор кодека/Информация : UTF-8 Plain Text
Продолжительность : 1 ч. 32 м.
Битрейт : 59 бит/сек
ElementCount : 886
Размер потока : 40,4 Кбайт (0%)
Язык : Russian
Default : Нет
Forced : Нет

Меню
00:00:00.000 : ru:01. День рождения
00:04:22.846 : ru:02. Мерида
00:09:17.432 : ru:03. Семейная трапеза
00:12:53.356 : ru:04. Легенды учат
00:14:00.256 : ru:05. Просто послушай
00:16:10.469 : ru:06. Подготовка
00:17:36.681 : ru:07. Знакомство с лордами
00:22:55.791 : ru:08. Игры
00:27:22.891 : ru:09. Ссора
00:28:51.229 : ru:10. Мерида убегает
00:30:54.853 : ru:11. Искусная резчица
00:34:00.372 : ru:12. Заклятье
00:36:03.495 : ru:13. Кекс
00:39:06.928 : ru:14. Превращение
00:41:55.096 : ru:15. Охота в замке
00:43:27.980 : ru:16. Тройняшки сбивают с пути
00:47:05.740 : ru:17. Клочья
00:48:22.358 : ru:18. Послание из котла
00:51:04.061 : ru:19. Память
00:52:33.859 : ru:20. Рассвет
00:54:01.155 : ru:21. Завтрак
00:54:45.699 : ru:22. Рыбалка с мамой
00:57:30.864 : ru:23. Погоня
00:59:00.162 : ru:24. Руины
01:02:48.181 : ru:25. Блокада
01:03:27.387 : ru:26. Помощь мамы
01:09:57.735 : ru:27. Гобелен
01:10:37.275 : ru:28. Медведь в замке
01:12:35.726 : ru:29. Отчаяние
01:13:39.498 : ru:30. Ключ
01:15:35.489 : ru:31. К спасению
01:16:59.073 : ru:32. Противоборство
01:17:37.111 : ru:33. Медвежья схватка
01:19:48.200 : ru:34. Второй рассвет
01:23:16.783 : ru:35. Эпилог
01:24:38.657 : ru:36. Финальные титры
01:33:27.602 : ru:37. Доставка


Как качать, Как раздавать - Правила и инструкции
Торрент09 сен 2017, 17:53 [ 09 сен 2017, 17:53 ]

СКАЧАТЬ с просмотром рекламы
СтатусПроверен Zakol
.torrent скачан312 раз
Размер839.24 МБ (880 006 219)

Скорость отдачи 100 кБ/с, стою на раздаче до появления 5-10 сидов.
Основа философии BitTorrent - "Скачал сам?! Дай скачать другим, не уходи с раздачи!!!".


Вернуться в Зарубежные мультфильмы



Кто сейчас на конференции

Сейчас этот форум просматривают: нет зарегистрированных пользователей

Ресурс не предоставляет электронные версии произведений, а занимается лишь коллекционированием и каталогизацией ссылок, присылаемых и публикуемых на форуме нашими читателями. Если вы являетесь правообладателем какого-либо представленного материала и не желаете чтобы ссылка на него находилась в нашем каталоге, свяжитесь с нами и мы незамедлительно удалим её. Файлы для обмена на трекере предоставлены пользователями сайта, и администрация не несёт ответственности за их содержание. Просьба не заливать файлы, защищенные авторскими правами, а также файлы нелегального содержания!