Холодное сердце / Frozen [ 2013, Мультфильм, Комедия, Приключения, Семейный, Фантастика, BDRip 720p] - Скачать торрент бесплатно

Модераторы: Модераторы Фильмы, мультфильмы, Союз Риперов

Поделиться ВКонтакте Поделиться Facebook Поделиться Twitter Поделиться Mail.RU
АвторСообщение
Download more
Аватара пользователя
Капитан
Капитан
 
Сообщения: 356
Зарегистрирован: 19 ноя 2016, 16:36
Откуда: г. Астана, Казахстан
Карма: 121
-1-

Сообщение Download more » 10 сен 2017, 00:29

Холодное сердце / Frozen [ 2013, Мультфильм, Комедия, Приключения, Семейный, Фантастика, BDRip 720p] - Скачать торрент

Название: Холодное сердце
Оригинальное название: Frozen

Дата выхода: 2013
Страна: США
Студия: Walt Disney Pictures
Жанр: Мультфильм, Комедия, Приключения, Семейный, Фантастика
Продолжительность: 01:42:13
Перевод: Профессиональный (полное дублирование) Blu-ray CEE
Роли озвучивали: Наталия Быстрова, Анна Бутурлина, Андрей Бирин, Сергей Пенкин, Дима Билан, Владимир Рыбальченко, Сергей Чихачев, Анастасия Лапина
Субтитры: русские
Режиссёр: Крис Бак, Дженнифер Ли
Режиссёр: Chris Buck, Jennifer Lee
Описание: Когда древнее предсказание сбывается и королевство погружается в объятия вечной зимы, трое бесстрашных героев — принцесса Анна, отважный Кристофф и его верный олень Свен — отправляются в горы, чтобы найти сестру Анны, Эльзу, которая может снять со страны леденящее заклятие. По пути их ждет множество увлекательных сюрпризов и захватывающих приключений: встреча с мистическими троллями, знакомство с очаровательным снеговиком по имени Олаф, горные вершины покруче Эвереста и магия в каждой снежинке. Анне и Кристоффу предстоит сплотиться и противостоять могучей стихии, чтобы спасти королевство и тех, кто им дорог…
Дополнительно:
Rip by Есмуханов Данияр Исламбекович | daniyar.esmuhanov
Качество: BDRip 720p
Формат файла: MKV
Аудио кодек: AC3
Видео: 1280x568, 23,976 (24000/1001) кадра/сек, ~1007 Кбит/сек
Аудио: kHz, AC3 Dolby Digital, 3/2 (L,C,R,l,r) + LFE ch, 448-Профессиональный (полное дублирование) Blu-ray CEE
MediaInfo: Видео
Идентификатор : 1
Формат : AVC
Формат/Информация : Advanced Video Codec
Профиль формата : High@L4.1
Параметр CABAC формата : Да
Параметр RefFrames формата : 4 кадра
Идентификатор кодека : V_MPEG4/ISO/AVC
Продолжительность : 1 ч. 42 м.
Битрейт : 1007 Кбит/сек
Ширина : 1280 пикселей
Высота : 568 пикселей
Соотношение сторон : 2,25:1
Режим частоты кадров : Постоянный
Частота кадров : 23,976 (24000/1001) кадра/сек
Частота кадров в оригинале : 23,976 (23976/1000) кадра/сек
Цветовое пространство : YUV
Субдискретизация насыщенности : 4:2:0
Битовая глубина : 8 бит
Тип развёртки : Прогрессивная
Бит/(Пиксели*Кадры) : 0.058
Размер потока : 734 Мбайт (69%)
Заголовок : Исходник: Blu-ray Disc | Автор рипа: Есмуханов Данияр Исламбекович | daniyar.esmuhanov
Библиотека кодирования : x264 core 132 r2 76a5c3a
Настройки программы : cabac=1 / ref=4 / deblock=1:-1:-1 / analyse=0x3:0x133 / me=umh / subme=9 / psy=1 / psy_rd=1.00:0.15 / mixed_ref=1 / me_range=24 / chroma_me=1 / trellis=2 / 8x8dct=1 / cqm=0 / deadzone=21,11 / fast_pskip=0 / chroma_qp_offset=-3 / threads=36 / lookahead_threads=3 / sliced_threads=0 / nr=0 / decimate=1 / interlaced=0 / bluray_compat=0 / constrained_intra=0 / bframes=3 / b_pyramid=2 / b_adapt=2 / b_bias=0 / direct=3 / weightb=1 / open_gop=0 / weightp=2 / keyint=250 / keyint_min=23 / scenecut=40 / intra_refresh=0 / rc_lookahead=60 / rc=2pass / mbtree=1 / bitrate=1004 / ratetol=1.0 / qcomp=0.60 / qpmin=0 / qpmax=69 / qpstep=4 / cplxblur=20.0 / qblur=0.5 / vbv_maxrate=31250 / vbv_bufsize=31250 / nal_hrd=none / ip_ratio=1.40 / aq=1:1.00
Язык : English
Default : Да
Forced : Да
Цветовой диапазон : Limited
Основные цвета : BT.709
Коэффициенты матрицы : BT.709

Аудио
Идентификатор : 2
Формат : AC-3
Формат/Информация : Audio Coding 3
Параметр Endianness формата : Big
Идентификатор кодека : A_AC3
Продолжительность : 1 ч. 42 м.
Вид битрейта : Постоянный
Битрейт : 448 Кбит/сек
Каналы : 6 каналов
Расположение каналов : Front: L C R, Side: L R, LFE
Частота : 48,0 КГц
Частота кадров : 31,250 кадров/сек (1536 SPF)
Битовая глубина : 16 бит
Метод сжатия : С потерями
Размер потока : 328 Мбайт (31%)
Заголовок : Профессиональный (полное дублирование) Blu-ray CEE
Язык : Russian
ServiceKind/String : Complete Main
Default : Да
Forced : Да

Текст
Идентификатор : 3
Формат : UTF-8
Идентификатор кодека : S_TEXT/UTF8
Идентификатор кодека/Информация : UTF-8 Plain Text
Продолжительность : 1 ч. 30 м.
Битрейт : 97 бит/сек
ElementCount : 1338
Размер потока : 65,2 Кбайт (0%)
Язык : Russian
Default : Нет
Forced : Нет


Как качать, Как раздавать - Правила и инструкции
Торрент10 сен 2017, 00:29 [ 10 сен 2017, 00:29 ]

СКАЧАТЬ с просмотром рекламы
СтатусПроверен Zakol
.torrent скачан176 раз
Размер1.04 ГБ (1 114 330 760)
Скорость отдачи 100 кБ/с, стою на раздаче до появления 5-10 сидов.
Основа философии BitTorrent - "скачал сам, дай скачать торрент другому".


daniyar.esmuhanov@gmail.com

Вернуться в Зарубежные мультфильмы



Кто сейчас на конференции

Сейчас этот форум просматривают: нет зарегистрированных пользователей

Ресурс не предоставляет электронные версии произведений, а занимается лишь коллекционированием и каталогизацией ссылок, присылаемых и публикуемых на форуме нашими читателями. Если вы являетесь правообладателем какого-либо представленного материала и не желаете чтобы ссылка на него находилась в нашем каталоге, свяжитесь с нами и мы незамедлительно удалим её. Файлы для обмена на трекере предоставлены пользователями сайта, и администрация не несёт ответственности за их содержание. Просьба не заливать файлы, защищенные авторскими правами, а также файлы нелегального содержания!