Динозавр / Dinosaur [2000, Мультфильм, Приключения, Семейный, Триллер, BDRip 720p] - Скачать торрент бесплатно

Модераторы: Модераторы Фильмы, мультфильмы, Союз Риперов

Поделиться ВКонтакте Поделиться Facebook Поделиться Twitter Поделиться Mail.RU
АвторСообщение
Download more
Аватара пользователя
Модератор Фильмов
Модератор Фильмов
 
Сообщения: 481
Зарегистрирован: 19 ноя 2016, 17:36
Откуда: г. Астана, Казахстан
Карма: 230
-2--2-

Сообщение Download more » 11 сен 2017, 00:46

Динозавр / Dinosaur [2000, Мультфильм, Приключения, Семейный, Триллер, BDRip 720p] - Скачать торрент

Название: Динозавр
Оригинальное название: Dinosaur

Дата выхода: 2000
Страна: США
Студия: Walt Disney Pictures
Жанр: Мультфильм, Приключения, Семейный, Триллер
Продолжительность: 01:21:59
Перевод: Профессиональный (полное дублирование) Blu-ray CEE
Роли озвучивали: Сергей Дьячков, Светлана Шейченко, Игорь Шибанов, Алексей Федотов, Эльвира Ишмуратова
Субтитры: русские
Режиссёр: Эрик Лейтон, Ральф Зондаг
Режиссёр: Eric Leighton, Ralph Zondag
Описание: Путешествие трехтонного игуанодонта по имени Аладар, который был разбужен из своего яйца племенем лемуров и случайно воссоединившегося с себе подобными. Из-за огненных метеоритов, разрушающих ландшафт и нехватки воды в исчезающих водоемах динозавры оказались в гонке за выживание, где главным их противником стало время.

Аладар наживает себе врага в лице бессердечного вожака Крона, когда заступается за беззащитных животных в несущемся сломя голову стаде. Лицом к лицу с такими опасностями, как внезапные оползни и атакующие тиранозавры, Аладар и его новые друзья должны преодолеть невероятные трудности до того, как обретут новую родину в прекрасной долине…
Дополнительно:
Rip by Есмуханов Данияр Исламбекович | daniyar.esmuhanov
Качество: BDRip 720p
Формат файла: MKV
Видео кодек: x264
Аудио кодек: AC3
Видео: 1280x688, MPEG4/ISO/AVC, High@L4, 23,976 (24000/1001) кадра/сек, ~3929 Кбит/сек
Аудио: kHz, AC3 Dolby Digital, 3/2 (L,C,R,l,r) + LFE ch, 448-Профессиональный (полное дублирование) Blu-ray CEE
MediaInfo: Видео
Идентификатор : 1
Формат : AVC
Формат/Информация : Advanced Video Codec
Профиль формата : High@L4
Параметр CABAC формата : Да
Параметр RefFrames формата : 4 кадра
Идентификатор кодека : V_MPEG4/ISO/AVC
Продолжительность : 1 ч. 21 м.
Переменный битрейт : 5929 Кбит/сек | 929 Кбит/сек | 3929 Кбит/сек
Битрейт : 3929 Кбит/сек
Ширина : 1280 пикселей
Высота : 688 пикселей
Соотношение сторон : 1,85:1
Режим частоты кадров : Постоянный
Частота кадров : 23,976 (24000/1001) кадра/сек
Цветовое пространство : YUV
Субдискретизация насыщенности : 4:2:0
Битовая глубина : 8 бит
Тип развёртки : Прогрессивная
Бит/(Пиксели*Кадры) : 0.044
Размер потока : 545 Мбайт (67%)
Заголовок : Исходник: Blu-ray Disc | Автор рипа: Есмуханов Данияр Исламбекович | daniyar.esmuhanov
Библиотека кодирования : x264 core 129 r2230 1cffe9f
Настройки программы : cabac=1 / ref=3 / deblock=1:-1:-1 / analyse=0x3:0x113 / me=hex / subme=7 / psy=1 / psy_rd=1.00:0.15 / mixed_ref=1 / me_range=16 / chroma_me=1 / trellis=1 / 8x8dct=1 / cqm=0 / deadzone=21,11 / fast_pskip=1 / chroma_qp_offset=-3 / threads=12 / lookahead_threads=2 / sliced_threads=0 / nr=0 / decimate=1 / interlaced=0 / bluray_compat=0 / constrained_intra=0 / bframes=3 / b_pyramid=2 / b_adapt=1 / b_bias=0 / direct=1 / weightb=1 / open_gop=0 / weightp=2 / keyint=240 / keyint_min=23 / scenecut=40 / intra_refresh=0 / rc_lookahead=40 / rc=2pass / mbtree=1 / bitrate=3929 / ratetol=1.0 / qcomp=0.60 / qpmin=10 / qpmax=51 / qpstep=4 / cplxblur=20.0 / qblur=0.5 / ip_ratio=1.40 / aq=1:1.00
Язык : English
Default : Да
Forced : Да

Аудио
Идентификатор : 2
Формат : AC-3
Формат/Информация : Audio Coding 3
Параметр Endianness формата : Big
Идентификатор кодека : A_AC3
Продолжительность : 1 ч. 22 м.
Вид битрейта : Постоянный
Битрейт : 448 Кбит/сек
Каналы : 6 каналов
Расположение каналов : Front: L C R, Side: L R, LFE
Частота : 48,0 КГц
Частота кадров : 31,250 кадров/сек (1536 SPF)
Битовая глубина : 16 бит
Метод сжатия : С потерями
Размер потока : 263 Мбайт (33%)
Заголовок : Профессиональный (полное дублирование) Blu-ray CEE
Язык : Russian
ServiceKind/String : Complete Main
Default : Да
Forced : Да

Текст
Идентификатор : 3
Формат : UTF-8
Идентификатор кодека : S_TEXT/UTF8
Идентификатор кодека/Информация : UTF-8 Plain Text
Продолжительность : 1 ч. 14 м.
Битрейт : 52 бит/сек
ElementCount : 527
Размер потока : 29,0 Кбайт (0%)
Язык : Russian
Default : Нет
Forced : Нет

Меню
00:00:00.000 : :Chapter 01
00:07:54.557 : :Chapter 02
00:15:49.114 : :Chapter 03
00:23:43.672 : :Chapter 04
00:31:38.271 : :Chapter 05
00:39:26.822 : :Chapter 06
00:47:09.368 : :Chapter 07
00:54:51.955 : :Chapter 08
01:01:46.452 : :Chapter 09
01:08:46.956 : :Chapter 10
01:15:39.535 : :Chapter 11
01:21:59.873 : :Chapter 12


Как качать, Как раздавать - Правила и инструкции
Торрент11 сен 2017, 00:46 [ 11 сен 2017, 00:46 ]

СКАЧАТЬ с просмотром рекламы
Статус-
.torrent скачан339 раз
Размер808.62 МБ (847 904 214)

Скорость отдачи 100 кБ/с, стою на раздаче до появления 5-10 сидов.
Основа философии BitTorrent - "Скачал сам?! Дай скачать другим, не уходи с раздачи!!!".


Вернуться в Зарубежные мультфильмы



Кто сейчас на конференции

Сейчас этот форум просматривают: нет зарегистрированных пользователей

Ресурс не предоставляет электронные версии произведений, а занимается лишь коллекционированием и каталогизацией ссылок, присылаемых и публикуемых на форуме нашими читателями. Если вы являетесь правообладателем какого-либо представленного материала и не желаете чтобы ссылка на него находилась в нашем каталоге, свяжитесь с нами и мы незамедлительно удалим её. Файлы для обмена на трекере предоставлены пользователями сайта, и администрация не несёт ответственности за их содержание. Просьба не заливать файлы, защищенные авторскими правами, а также файлы нелегального содержания!