Беовульф / Beowulf | Режиссёрская версия [ 2007, Мультфильм, Боевик, Приключения, Семейный, Фантастика, BDRip 720p] - Скачать торрент бесплатно

Модераторы: Модераторы Фильмы, мультфильмы, Союз Риперов

Поделиться ВКонтакте Поделиться Facebook Поделиться Twitter Поделиться Mail.RU
АвторСообщение
Download more
Аватара пользователя
Модератор Фильмов
Модератор Фильмов
 
Сообщения: 481
Зарегистрирован: 19 ноя 2016, 17:36
Откуда: г. Астана, Казахстан
Карма: 230
-2--2-

Сообщение Download more » 08 сен 2017, 22:41

Беовульф / Beowulf | Режиссёрская версия [ 2007, Мультфильм, Боевик, Приключения, Семейный, Фантастика, BDRip 720p] - Скачать торрент

Название: Беовульф
Оригинальное название: Beowulf | Режиссёрская версия

Дата выхода: 2007
Страна: США
Студия: Paramount Pictures
Жанр: Мультфильм, Боевик, Приключения, Семейный, Фантастика
Продолжительность: 01:54:42
Перевод: Профессиональный (полное дублирование) Blu-ray CEE
Роли озвучивали: Олег Куценко, Владимир Еремин, Елена Соловьева, Константин Карасик, Пётр Иващенко
Субтитры: русские
Режиссёр: Роберт Земекис
Режиссёр: Robert Zemeckis
Описание: События фильма разворачиваются в ту чудесную эпоху, покрытую туманом прошлого, богатую на героев и монстров, приключения и отвагу, богатство и славу, когда одному исключительному человеку по имени Беовульф удается спасти древнее датское королевство от жуткого чудовища, истребляющего его жителей. После этого сей легендарный викинг ростом почти в два метра, полный дерзости, уверенности и удивительной амбициозности, восходит на трон.
Всё чаще в королевстве звучит имя Беовульфа, о нем слагаются песни, восхваляющие его небывалую доблесть и решительность после того, как он приходит на помощь королю Хродгару, чье королевство подвергается вероломным нападкам Гренделя, беспощадного монстра, который мучает и пожирает жителей королевства, заставляя их жить в вечном ожидании страха и опасности.
Избавляя королевство от безжалостного монстра, Беовульф обретает славу и успех. К его ногам оказываются брошены несметные богатства, но непреодолимые искушения подстерегают его повсюду. То, насколько мудро он сможет распорядиться своей новоприобретенной властью, навсегда определит его судьбу как воина, победителя, как лидера, мужа и, что более важно, как человека.
Дополнительно:
Rip by Есмуханов Данияр Исламбекович | daniyar.esmuhanov
Качество: BDRip 720p
Формат файла: MKV
Видео кодек: x264
Аудио кодек: AC3
Видео: 1280x544, MPEG4/ISO/AVC, High@L4, 23,976 (24000/1001) кадра/сек, ~3815 Кбит/сек
Аудио: kHz, AC3 Dolby Digital, 3/2 (L,C,R,l,r) + LFE ch, 448-Профессиональный (полное дублирование) Blu-ray CEE
MediaInfo: Видео
Идентификатор : 1
Формат : AVC
Формат/Информация : Advanced Video Codec
Профиль формата : High@L4
Параметр CABAC формата : Да
Параметр RefFrames формата : 7 кадров
Идентификатор кодека : V_MPEG4/ISO/AVC
Продолжительность : 1 ч. 54 м.
Переменный битрейт : 5815 Кбит/сек | 815 Кбит/сек | 3815 Кбит/сек
Битрейт : 3815 Кбит/сек
Ширина : 1280 пикселей
Высота : 544 пикселя
Соотношение сторон : 2,35:1
Режим частоты кадров : Постоянный
Частота кадров : 23,976 (24000/1001) кадра/сек
Цветовое пространство : YUV
Субдискретизация насыщенности : 4:2:0
Битовая глубина : 8 бит
Тип развёртки : Прогрессивная
Бит/(Пиксели*Кадры) : 0.049
Размер потока : 668 Мбайт (64%)
Заголовок : Исходник: Blu-ray Disc | Автор рипа: Есмуханов Данияр Исламбекович | daniyar.esmuhanov
Библиотека кодирования : x264 core 129 r2245 bc13772
Настройки программы : cabac=1 / ref=8 / deblock=1:0:0 / analyse=0x3:0x133 / me=umh / subme=9 / psy=1 / psy_rd=1.00:0.00 / mixed_ref=1 / me_range=16 / chroma_me=1 / trellis=2 / 8x8dct=1 / cqm=0 / deadzone=21,11 / fast_pskip=1 / chroma_qp_offset=-2 / threads=12 / lookahead_threads=2 / sliced_threads=0 / nr=0 / decimate=1 / interlaced=0 / bluray_compat=0 / constrained_intra=0 / bframes=3 / b_pyramid=1 / b_adapt=2 / b_bias=2 / direct=3 / weightb=1 / open_gop=0 / weightp=2 / keyint=240 / keyint_min=23 / scenecut=40 / intra_refresh=0 / rc_lookahead=60 / rc=2pass / mbtree=1 / bitrate=3815 / ratetol=1.0 / qcomp=0.60 / qpmin=10 / qpmax=51 / qpstep=4 / cplxblur=20.0 / qblur=0.5 / ip_ratio=1.40 / aq=1:1.00
Язык : English
Default : Да
Forced : Да

Аудио
Идентификатор : 2
Формат : AC-3
Формат/Информация : Audio Coding 3
Параметр Endianness формата : Big
Идентификатор кодека : A_AC3
Продолжительность : 1 ч. 54 м.
Вид битрейта : Постоянный
Битрейт : 448 Кбит/сек
Каналы : 6 каналов
Расположение каналов : Front: L C R, Side: L R, LFE
Частота : 48,0 КГц
Частота кадров : 31,250 кадров/сек (1536 SPF)
Битовая глубина : 16 бит
Метод сжатия : С потерями
Размер потока : 368 Мбайт (35%)
Заголовок : Профессиональный (полное дублирование) Blu-ray CEE
Язык : Russian
ServiceKind/String : Complete Main
Default : Да
Forced : Да

Текст
Идентификатор : 3
Формат : UTF-8
Идентификатор кодека : S_TEXT/UTF8
Идентификатор кодека/Информация : UTF-8 Plain Text
Продолжительность : 1 ч. 53 м.
Битрейт : 55 бит/сек
ElementCount : 878
Размер потока : 46,6 Кбайт (0%)
Язык : Russian
Default : Нет
Forced : Нет


Как качать, Как раздавать - Правила и инструкции
Торрент08 сен 2017, 22:41 [ 08 сен 2017, 22:41 ]

СКАЧАТЬ с просмотром рекламы
СтатусПроверен Zakol
.torrent скачан85 раз
Размер1.01 ГБ (1 087 804 788)

Скорость отдачи 100 кБ/с, стою на раздаче до появления 5-10 сидов.
Основа философии BitTorrent - "Скачал сам?! Дай скачать другим, не уходи с раздачи!!!".


iandeks.yy2018

 

Сообщения: 4

Зарегистрирован: 25 авг 2017, 12:41

Карма: 0

Сообщение iandeks.yy2018» 08 сен 2017, 22:56

здравствуйте уважаемый автор благадарим за прекрасный фильм я так понимаю что вот этот фильм продолжение не посмотреть спасибо От заката до рассвета / From Dusk Till Dawn [1996, Боевик, Криминал, Триллер, Ужасы, BDRip 1080р]

Download more

Модератор Фильмов

Аватара пользователя
 

Сообщения: 481

Зарегистрирован: 19 ноя 2016, 17:36

Откуда: г. Астана, Казахстан

Карма: 230
-2--2-

Сообщение Download more» 08 сен 2017, 23:01

iandeks.yy2018 писал(а):здравствуйте уважаемый автор благадарим за прекрасный фильм я так понимаю что вот этот фильм продолжение не посмотреть спасибо От заката до рассвета / From Dusk Till Dawn [1996, Боевик, Криминал, Триллер, Ужасы, BDRip 1080р]

Пожалуйста :-)
К сожалению не могу открыть диски которые у меня есть не поддерживаются, а скачивать диск чтоб сделать рип моя скорость инета не позволяет :-(

Скорость отдачи 100 кБ/с, стою на раздаче до появления 5-10 сидов.
Основа философии BitTorrent - "Скачал сам?! Дай скачать другим, не уходи с раздачи!!!".



Вернуться в Зарубежные мультфильмы



Кто сейчас на конференции

Сейчас этот форум просматривают: нет зарегистрированных пользователей

Ресурс не предоставляет электронные версии произведений, а занимается лишь коллекционированием и каталогизацией ссылок, присылаемых и публикуемых на форуме нашими читателями. Если вы являетесь правообладателем какого-либо представленного материала и не желаете чтобы ссылка на него находилась в нашем каталоге, свяжитесь с нами и мы незамедлительно удалим её. Файлы для обмена на трекере предоставлены пользователями сайта, и администрация не несёт ответственности за их содержание. Просьба не заливать файлы, защищенные авторскими правами, а также файлы нелегального содержания!