Аладдин / Aladdin [1992, Мультфильм, Комедия, Приключения, Семейный, Фэнтези, BDRip 720p] - Скачать торрент бесплатно

Модераторы: Модераторы Фильмы, мультфильмы, Союз Риперов

Поделиться ВКонтакте Поделиться Facebook Поделиться Twitter Поделиться Mail.RU
АвторСообщение
Download more
Аватара пользователя
Модератор Фильмов
Модератор Фильмов
 
Сообщения: 481
Зарегистрирован: 19 ноя 2016, 17:36
Откуда: г. Астана, Казахстан
Карма: 230
-2--2-

Сообщение Download more » 11 сен 2017, 15:34

Аладдин / Aladdin [1992, Мультфильм, Комедия, Приключения, Семейный, Фэнтези, BDRip 720p] - Скачать торрент

Название: Аладдин
Оригинальное название: Aladdin

Дата выхода: 1992
Страна: США
Студия: Walt Disney Pictures
Жанр: Мультфильм, Комедия, Приключения, Семейный, Фэнтези
Продолжительность: 01:30:25
Перевод: Профессиональный (полное дублирование) Blu-ray CEE
Роли озвучивали: Андрей Кузнецов, Геннадий Богачёв, Евгения Игумнова, Вадим Никитин, Георгий Траугот
Субтитры: русские
Режиссёр: Рон Клементс, Джон Маскер
Режиссёр: Ron Clements, John Musker
Описание: В славном граде Аграба живёт Аладдин, веселый воришка с золотым сердцем. Живёт и не знает, что вскоре его ждёт величайшее приключение в жизни. Ведь только с его помощью чёрный маг Джафар может овладеть невероятным сокровищем — лампой, в которой заключён исполняющий желания могущественный Джинн. И только хитроумие, смекалка и доброта Аладдина и его друзей — обезьянки Абу, принцессы Жасмин и самого Джинна — способны помешать Джафару завладеть лампой и захватить власть над миром.
Дополнительно:
Rip by Есмуханов Данияр Исламбекович | daniyar.esmuhanov
Качество: BDRip 720p
Формат файла: MKV
Аудио кодек: AC3
Видео: 1280x688, 23,976 (24000/1001) кадра/сек, ~1007 Кбит/сек
Аудио: kHz, AC3 Dolby Digital, 3/2 (L,C,R,l,r) + LFE ch, 448-Профессиональный (полное дублирование) Blu-ray CEE
MediaInfo: Видео
Идентификатор : 1
Формат : AVC
Формат/Информация : Advanced Video Codec
Профиль формата : High@L3.1
Параметр CABAC формата : Да
Параметр RefFrames формата : 5 кадров
Идентификатор кодека : V_MPEG4/ISO/AVC
Продолжительность : 1 ч. 30 м.
Битрейт : 1007 Кбит/сек
Ширина : 1280 пикселей
Высота : 688 пикселей
Соотношение сторон : 1,85:1
Режим частоты кадров : Постоянный
Частота кадров : 23,976 (23976/1000) кадра/сек
Частота кадров в оригинале : 23,976 (24000/1001) кадра/сек
Цветовое пространство : YUV
Субдискретизация насыщенности : 4:2:0
Битовая глубина : 8 бит
Тип развёртки : Прогрессивная
Бит/(Пиксели*Кадры) : 0.048
Размер потока : 643 Мбайт (69%)
Заголовок : Исходник: Blu-ray Disc | Автор рипа: Есмуханов Данияр Исламбекович | daniyar.esmuhanov
Библиотека кодирования : x264 core 130 r2273 b3065e6
Настройки программы : cabac=1 / ref=5 / deblock=1:0:0 / analyse=0x3:0x133 / me=umh / subme=9 / psy=1 / psy_rd=1.00:0.00 / mixed_ref=1 / me_range=16 / chroma_me=1 / trellis=2 / 8x8dct=1 / cqm=0 / deadzone=21,11 / fast_pskip=1 / chroma_qp_offset=-2 / threads=3 / lookahead_threads=1 / sliced_threads=0 / nr=0 / decimate=1 / interlaced=0 / bluray_compat=0 / constrained_intra=0 / bframes=3 / b_pyramid=2 / b_adapt=2 / b_bias=0 / direct=3 / weightb=1 / open_gop=0 / weightp=2 / keyint=240 / keyint_min=24 / scenecut=40 / intra_refresh=0 / rc_lookahead=60 / rc=abr / mbtree=1 / bitrate=1006 / ratetol=1.0 / qcomp=0.60 / qpmin=0 / qpmax=69 / qpstep=4 / vbv_maxrate=17500 / vbv_bufsize=17500 / nal_hrd=none / ip_ratio=1.40 / aq=1:1.00
Язык : English
Default : Да
Forced : Да
Цветовой диапазон : Limited
Основные цвета : BT.709
Характеристики трансфера : BT.709
Коэффициенты матрицы : BT.709

Аудио
Идентификатор : 2
Формат : AC-3
Формат/Информация : Audio Coding 3
Параметр Endianness формата : Big
Идентификатор кодека : A_AC3
Продолжительность : 1 ч. 30 м.
Вид битрейта : Постоянный
Битрейт : 448 Кбит/сек
Каналы : 6 каналов
Расположение каналов : Front: L C R, Side: L R, LFE
Частота : 48,0 КГц
Частота кадров : 31,250 кадров/сек (1536 SPF)
Битовая глубина : 16 бит
Метод сжатия : С потерями
Задержка видео : 24 мс.
Размер потока : 289 Мбайт (31%)
Заголовок : Профессиональный (полное дублирование) Blu-ray CEE
Язык : Russian
ServiceKind/String : Complete Main
Default : Да
Forced : Да

Текст
Идентификатор : 3
Формат : UTF-8
Идентификатор кодека : S_TEXT/UTF8
Идентификатор кодека/Информация : UTF-8 Plain Text
Продолжительность : 1 ч. 29 м.
Битрейт : 89 бит/сек
ElementCount : 1169
Размер потока : 58,6 Кбайт (0%)
Язык : Russian
Default : Нет
Forced : Нет

Меню
00:00:00.000 : :Chapter 01
00:03:06.060 : :Chapter 02
00:06:47.323 : :Chapter 03
00:12:37.423 : :Chapter 04
00:16:34.618 : :Chapter 05
00:19:39.052 : :Chapter 06
00:23:50.470 : :Chapter 07
00:27:39.324 : :Chapter 08
00:31:21.629 : :Chapter 09
00:34:55.676 : :Chapter 10
00:37:20.363 : :Chapter 11
00:41:13.387 : :Chapter 12
00:43:32.860 : :Chapter 13
00:47:17.042 : :Chapter 14
00:48:39.958 : :Chapter 15
00:55:20.025 : :Chapter 16
00:57:37.745 : :Chapter 17
01:03:04.906 : :Chapter 18
01:07:24.915 : :Chapter 19
01:10:07.411 : :Chapter 20
01:10:41.654 : :Chapter 21
01:15:31.610 : :Chapter 22
01:18:57.983 : :Chapter 23
01:21:41.438 : :Chapter 24
01:25:43.555 : :Chapter 25
01:30:39.600 : :Chapter 26


Как качать, Как раздавать - Правила и инструкции
Торрент11 сен 2017, 15:31 [ 11 сен 2017, 15:31 ]

СКАЧАТЬ с просмотром рекламы
СтатусПроверен Zakol
.torrent скачан717 раз
Размер933.83 МБ (979 195 046)

Скорость отдачи 100 кБ/с, стою на раздаче до появления 5-10 сидов.
Основа философии BitTorrent - "Скачал сам?! Дай скачать другим, не уходи с раздачи!!!".


Вернуться в Зарубежные мультфильмы



Кто сейчас на конференции

Сейчас этот форум просматривают: нет зарегистрированных пользователей

Ресурс не предоставляет электронные версии произведений, а занимается лишь коллекционированием и каталогизацией ссылок, присылаемых и публикуемых на форуме нашими читателями. Если вы являетесь правообладателем какого-либо представленного материала и не желаете чтобы ссылка на него находилась в нашем каталоге, свяжитесь с нами и мы незамедлительно удалим её. Файлы для обмена на трекере предоставлены пользователями сайта, и администрация не несёт ответственности за их содержание. Просьба не заливать файлы, защищенные авторскими правами, а также файлы нелегального содержания!