Секреты Лос-Анджелеса / L.A. Confidential [1997, Детектив, Драма, Криминал, Триллер, BDRip 1080р] - Скачать торрент бесплатно

Модераторы: Модераторы Фильмы, мультфильмы, Союз Риперов

Поделиться ВКонтакте Поделиться Facebook Поделиться Twitter Поделиться Mail.RU
АвторСообщение
Download more
Аватара пользователя
Модератор Фильмов
Модератор Фильмов
 
Сообщения: 378
Зарегистрирован: 19 ноя 2016, 17:36
Откуда: г. Астана, Казахстан
Карма: 151
-1-

Сообщение Download more » 14 ноя 2017, 19:37

Секреты Лос-Анджелеса / L.A. Confidential [1997, Детектив, Драма, Криминал, Триллер, BDRip 1080р] - Скачать торрент

Название: Секреты Лос-Анджелеса
Оригинальное название: L.A. Confidential

Дата выхода: 1997
Студия: Warner Bros. Pictures
Жанр: Детектив, Драма, Криминал, Триллер
Страна: США
Субтитры: русские, английские
Перевод: Авторский (одноголосый закадровый) Е.Гаевский, Профессиональный (двухголосый закадровый) Twister, Профессиональный (многоголосый закадровый) Гемини фильм, Профессиональный (многоголосый закадровый) ОРТ | Первый канал, Профессиональный (многоголосый закадровый) РТР, Профессиональный (многоголосый закадровый) ТВ 3, Профессиональный (двухголосый закадровый) Лазер Видео, Комментарии актёров, сценаристов, оператора, монтажёра и других, Оригинальная аудиодорожка: английский
Продолжительность: 02:17:53
Режиссёр: Кёртис Хэнсон /Curtis Hanson
В ролях: Кевин Спейси, Рассел Кроу, Гай Пирс, Джеймс Кромуэлл, Ким Бейсингер, Дэвид Стрэтэйрн, Дэнни ДеВито, Грэм Беккел, Пол Гилфойл, Рон Рифкин
Описание: Добро пожаловать в Лос-Анджелес, с его ярким солнцем, широкими манящими пляжами и … процветающей организованной преступностью. Известно даже имя главы преступного мира — Микки Коэн. После ареста босса мафии один за другим в мир иной отправляются его помощники, стремившиеся занять освободившееся место Микки.

В битву с преступниками, естественно, вступает знаменитая полиция Лос-Анджелеса. Двое бесстрашных полицейских, расследующих серию убийств, оказываются соперниками не только на работе, но и в постели проститутки из экзотического борделя.
Дополнительно:

Rip by Есмуханов Данияр Исламбекович | daniyar.esmuhanov
Качество: BDRip 1080р
Формат файла: MKV
Видео: 1916x800, MPEG4/ISO/AVC, Профиль формата: High@L4, 23,976 (24000/1001) кадра/сек, ~3827 Кбит/сек
Аудио: 48,0 КГц, AC3 Dolby Digital, 3/2 (L,C,R,l,r) + LFE ch, 448 kbps Авторский (одноголосый закадровый) Е.Гаевский, Профессиональный (двухголосый закадровый) Twister, Профессиональный (многоголосый закадровый) Гемини фильм, Оригинальная аудиодорожка: английский
Аудио #2: 48,0 КГц, AC3 Dolby Digital, 2 ch, 192 kbps Профессиональный (многоголосый закадровый) ОРТ | Первый канал, Профессиональный (многоголосый закадровый) РТР, Профессиональный (многоголосый закадровый) ТВ 3, Профессиональный (двухголосый закадровый) Лазер Видео, Комментарии актёров, сценаристов, оператора, монтажёра и других
MediaInfo: Видео
Идентификатор : 1
Формат : AVC
Формат/Информация : Advanced Video Codec
Профиль формата : High@L4
Настройки формата : CABAC / 4 Ref Frames
Параметр CABAC формата : Да
Параметр RefFrames формата : 4 кадра
Идентификатор кодека : V_MPEG4/ISO/AVC
Продолжительность : 2 ч. 17 м.
Максимальный Битрейт : 5827 Кбит/сек
Средний Битрейт : 1827 Кбит/сек
Битрейт : 3827 Кбит/сек
Ширина : 1916 пикселей
Высота : 800 пикселей
Соотношение сторон : 2,40:1
Режим частоты кадров : Постоянный
Частота кадров : 23,976 (24000/1001) кадра/сек
Цветовое пространство : YUV
Субдискретизация насыщенности : 4:2:0
Битовая глубина : 8 бит
Тип развёртки : Прогрессивная
Бит/(Пиксели*Кадры) : 0.050
Размер потока : 1,76 Гбайт (40%)
Заголовок : Исходник: Blu-ray Disc | Автор рипа: Есмуханов Данияр Исламбекович | daniyar.esmuhanov
Библиотека кодирования : x264 core 133 r2334 a3ac64b
Настройки программы : cabac=1 / ref=4 / deblock=1:0:0 / analyse=0x3:0x113 / me=hex / subme=7 / psy=1 / psy_rd=1.00:0.00 / mixed_ref=1 / me_range=16 / chroma_me=1 / trellis=1 / 8x8dct=1 / cqm=0 / deadzone=21,11 / fast_pskip=1 / chroma_qp_offset=-2 / threads=12 / lookahead_threads=2 / sliced_threads=0 / nr=0 / decimate=1 / interlaced=0 / bluray_compat=0 / constrained_intra=0 / bframes=4 / b_pyramid=2 / b_adapt=1 / b_bias=0 / direct=1 / weightb=1 / open_gop=0 / weightp=2 / keyint=240 / keyint_min=23 / scenecut=40 / intra_refresh=0 / rc_lookahead=40 / rc=2pass / mbtree=1 / bitrate=3827 / ratetol=1.0 / qcomp=0.60 / qpmin=0 / qpmax=69 / qpstep=4 / cplxblur=20.0 / qblur=0.5 / vbv_maxrate=25000 / vbv_bufsize=31250 / nal_hrd=none / ip_ratio=1.40 / aq=1:1.00
Язык : English
Default : Да
Forced : Да

Аудио #1
Идентификатор : 2
Формат : AC-3
Формат/Информация : Audio Coding 3
Параметр Endianness формата : Big
Идентификатор кодека : A_AC3
Продолжительность : 2 ч. 17 м.
Вид битрейта : Постоянный
Битрейт : 448 Кбит/сек
Каналы : 6 каналов
Расположение каналов : Front: L C R, Side: L R, LFE
Частота : 48,0 КГц
Частота кадров : 31,250 кадров/сек (1536 SPF)
Битовая глубина : 16 бит
Метод сжатия : С потерями
Размер потока : 442 Мбайт (10%)
Заголовок : Авторский (одноголосый закадровый) Е.Гаевский
Язык : Russian
ServiceKind/String : Complete Main
Default : Да
Forced : Да

Аудио #2
Идентификатор : 3
Формат : AC-3
Формат/Информация : Audio Coding 3
Параметр Endianness формата : Big
Идентификатор кодека : A_AC3
Продолжительность : 2 ч. 17 м.
Вид битрейта : Постоянный
Битрейт : 448 Кбит/сек
Каналы : 6 каналов
Расположение каналов : Front: L C R, Side: L R, LFE
Частота : 48,0 КГц
Частота кадров : 31,250 кадров/сек (1536 SPF)
Битовая глубина : 16 бит
Метод сжатия : С потерями
Размер потока : 442 Мбайт (10%)
Заголовок : Профессиональный (двухголосый закадровый) Twister
Язык : Russian
ServiceKind/String : Complete Main
Default : Нет
Forced : Нет

Аудио #3
Идентификатор : 4
Формат : AC-3
Формат/Информация : Audio Coding 3
Параметр Endianness формата : Big
Идентификатор кодека : A_AC3
Продолжительность : 2 ч. 17 м.
Вид битрейта : Постоянный
Битрейт : 448 Кбит/сек
Каналы : 6 каналов
Расположение каналов : Front: L C R, Side: L R, LFE
Частота : 48,0 КГц
Частота кадров : 31,250 кадров/сек (1536 SPF)
Битовая глубина : 16 бит
Метод сжатия : С потерями
Размер потока : 442 Мбайт (10%)
Заголовок : Профессиональный (многоголосый закадровый) Гемини фильм
Язык : Russian
ServiceKind/String : Complete Main
Default : Нет
Forced : Нет

Аудио #4
Идентификатор : 5
Формат : AC-3
Формат/Информация : Audio Coding 3
Параметр Endianness формата : Big
Идентификатор кодека : A_AC3
Продолжительность : 2 ч. 17 м.
Вид битрейта : Постоянный
Битрейт : 192 Кбит/сек
Каналы : 2 канала
Расположение каналов : Front: L R
Частота : 48,0 КГц
Частота кадров : 31,250 кадров/сек (1536 SPF)
Битовая глубина : 16 бит
Метод сжатия : С потерями
Размер потока : 189 Мбайт (4%)
Заголовок : Профессиональный (многоголосый закадровый) ОРТ | Первый канал
Язык : Russian
ServiceKind/String : Complete Main
Default : Нет
Forced : Нет

Аудио #5
Идентификатор : 6
Формат : AC-3
Формат/Информация : Audio Coding 3
Параметр Endianness формата : Big
Идентификатор кодека : A_AC3
Продолжительность : 2 ч. 17 м.
Вид битрейта : Постоянный
Битрейт : 192 Кбит/сек
Каналы : 2 канала
Расположение каналов : Front: L R
Частота : 48,0 КГц
Частота кадров : 31,250 кадров/сек (1536 SPF)
Битовая глубина : 16 бит
Метод сжатия : С потерями
Размер потока : 189 Мбайт (4%)
Заголовок : Профессиональный (многоголосый закадровый) РТР
Язык : Russian
ServiceKind/String : Complete Main
Default : Нет
Forced : Нет

Аудио #6
Идентификатор : 7
Формат : AC-3
Формат/Информация : Audio Coding 3
Параметр Endianness формата : Big
Идентификатор кодека : A_AC3
Продолжительность : 2 ч. 17 м.
Вид битрейта : Постоянный
Битрейт : 192 Кбит/сек
Каналы : 2 канала
Расположение каналов : Front: L R
Частота : 48,0 КГц
Частота кадров : 31,250 кадров/сек (1536 SPF)
Битовая глубина : 16 бит
Метод сжатия : С потерями
Размер потока : 189 Мбайт (4%)
Заголовок : Профессиональный (многоголосый закадровый) ТВ 3
Язык : Russian
ServiceKind/String : Complete Main
Default : Нет
Forced : Нет

Аудио #7
Идентификатор : 8
Формат : AC-3
Формат/Информация : Audio Coding 3
Параметр Endianness формата : Big
Идентификатор кодека : A_AC3
Продолжительность : 2 ч. 17 м.
Вид битрейта : Постоянный
Битрейт : 192 Кбит/сек
Каналы : 2 канала
Расположение каналов : Front: L R
Частота : 48,0 КГц
Частота кадров : 31,250 кадров/сек (1536 SPF)
Битовая глубина : 16 бит
Метод сжатия : С потерями
Размер потока : 189 Мбайт (4%)
Заголовок : Профессиональный (двухголосый закадровый) Лазер Видео
Язык : Russian
ServiceKind/String : Complete Main
Default : Нет
Forced : Нет

Аудио #8
Идентификатор : 9
Формат : AC-3
Формат/Информация : Audio Coding 3
Параметр Endianness формата : Big
Идентификатор кодека : A_AC3
Продолжительность : 2 ч. 17 м.
Вид битрейта : Постоянный
Битрейт : 192 Кбит/сек
Каналы : 2 канала
Расположение каналов : Front: L R
Частота : 48,0 КГц
Частота кадров : 31,250 кадров/сек (1536 SPF)
Битовая глубина : 16 бит
Метод сжатия : С потерями
Размер потока : 189 Мбайт (4%)
Заголовок : Комментарии актёров, сценаристов, оператора, монтажёра и других
Язык : English
ServiceKind/String : Complete Main
Default : Нет
Forced : Нет

Аудио #9
Идентификатор : 10
Формат : AC-3
Формат/Информация : Audio Coding 3
Параметр Endianness формата : Big
Идентификатор кодека : A_AC3
Продолжительность : 2 ч. 17 м.
Вид битрейта : Постоянный
Битрейт : 448 Кбит/сек
Каналы : 6 каналов
Расположение каналов : Front: L C R, Side: L R, LFE
Частота : 48,0 КГц
Частота кадров : 31,250 кадров/сек (1536 SPF)
Битовая глубина : 16 бит
Метод сжатия : С потерями
Размер потока : 442 Мбайт (10%)
Язык : English
ServiceKind/String : Complete Main
Default : Нет
Forced : Нет

Текст #1
Идентификатор : 11
Формат : UTF-8
Идентификатор кодека : S_TEXT/UTF8
Идентификатор кодека/Информация : UTF-8 Plain Text
Продолжительность : 2 ч. 12 м.
Битрейт : 113 бит/сек
ElementCount : 1571
Размер потока : 110 Кбайт (0%)
Язык : Russian
Default : Нет
Forced : Нет

Текст #2
Идентификатор : 12
Формат : UTF-8
Идентификатор кодека : S_TEXT/UTF8
Идентификатор кодека/Информация : UTF-8 Plain Text
Продолжительность : 2 ч. 11 м.
Битрейт : 106 бит/сек
ElementCount : 1457
Размер потока : 103 Кбайт (0%)
Заголовок : Twister
Язык : Russian
Default : Нет
Forced : Нет

Текст #3
Идентификатор : 13
Формат : UTF-8
Идентификатор кодека : S_TEXT/UTF8
Идентификатор кодека/Информация : UTF-8 Plain Text
Продолжительность : 2 ч. 11 м.
Битрейт : 92 бит/сек
ElementCount : 1560
Размер потока : 89,3 Кбайт (0%)
Заголовок : Гемини фильм
Язык : Russian
Default : Нет
Forced : Нет

Текст #4
Идентификатор : 14
Формат : UTF-8
Идентификатор кодека : S_TEXT/UTF8
Идентификатор кодека/Информация : UTF-8 Plain Text
Продолжительность : 2 ч. 11 м.
Битрейт : 99 бит/сек
ElementCount : 1635
Размер потока : 95,8 Кбайт (0%)
Язык : Russian
Default : Нет
Forced : Нет

Текст #5
Идентификатор : 15
Формат : UTF-8
Идентификатор кодека : S_TEXT/UTF8
Идентификатор кодека/Информация : UTF-8 Plain Text
Продолжительность : 2 ч. 11 м.
Битрейт : 57 бит/сек
ElementCount : 1624
Размер потока : 55,5 Кбайт (0%)
Язык : English
Default : Нет
Forced : Нет

Текст #6
Идентификатор : 16
Формат : UTF-8
Идентификатор кодека : S_TEXT/UTF8
Идентификатор кодека/Информация : UTF-8 Plain Text
Продолжительность : 2 ч. 17 м.
Битрейт : 62 бит/сек
ElementCount : 1657
Размер потока : 62,7 Кбайт (0%)
Язык : English
Default : Нет
Forced : Нет

Как качать, Как раздавать - Правила и инструкции
Торрент14 ноя 2017, 19:28 [ 14 ноя 2017, 19:28 ]

СКАЧАТЬ с просмотром рекламы
СтатусПроверен
.torrent скачан133 раз
Размер4.41 ГБ (4 740 057 910)

Скорость отдачи 100 кБ/с, стою на раздаче до появления 5-10 сидов.
Основа философии BitTorrent - "Скачал сам?! Дай скачать другим, не уходи с раздачи!!!".


Download more

Модератор Фильмов

Аватара пользователя
 

Сообщения: 378

Зарегистрирован: 19 ноя 2016, 17:36

Откуда: г. Астана, Казахстан

Карма: 151
-1-

Сообщение Download more» 14 ноя 2017, 19:38


Скорость отдачи 100 кБ/с, стою на раздаче до появления 5-10 сидов.
Основа философии BitTorrent - "Скачал сам?! Дай скачать другим, не уходи с раздачи!!!".


guddine13

Инженер

 

Сообщения: 51

Зарегистрирован: 12 май 2015, 18:33

Карма: 6

Сообщение guddine13» 14 ноя 2017, 21:34

Фильм хорош, если не сказать больше, смотрел в своё время раз 5-6. Посмотрю с удовольствием в таком разрешении. *круто *круто *круто


Вернуться в Зарубежные фильмы до 2000го года...



Кто сейчас на конференции

Сейчас этот форум просматривают: нет зарегистрированных пользователей

Ресурс не предоставляет электронные версии произведений, а занимается лишь коллекционированием и каталогизацией ссылок, присылаемых и публикуемых на форуме нашими читателями. Если вы являетесь правообладателем какого-либо представленного материала и не желаете чтобы ссылка на него находилась в нашем каталоге, свяжитесь с нами и мы незамедлительно удалим её. Файлы для обмена на трекере предоставлены пользователями сайта, и администрация не несёт ответственности за их содержание. Просьба не заливать файлы, защищенные авторскими правами, а также файлы нелегального содержания!