Лига Чемпионов 2017/18. 1-й тур. Обзор матчей [Футбол, 13.09.2017, HDTV 1080i] - Скачать торрент бесплатно

Футбол - игра всех времен и народов. Трансляции в записи. Любимые голы и спортивные матчи. Всем любителям футбола посвящается. cкачать торрент бесплатно без регистрации.

Модераторы: Кандидат в Союз Риперов, Модераторы ТВ-Шоу, документальные, спорт, Союз Риперов

Футбол - игра всех времен и народов. Трансляции в записи. Любимые голы и спортивные матчи. Всем любителям футбола посвящается. cкачать торрент бесплатно без регистрации.
Поделиться ВКонтакте Поделиться Facebook Поделиться Twitter Поделиться Mail.RU
АвторСообщение
sanchez89
Аватара пользователя
Модератор ТВ-ШОУ
Модератор ТВ-ШОУ
 
Сообщения: 868
Зарегистрирован: 24 авг 2012, 18:41
Откуда: с. Спасское, Бугульминский район, Татарстан, РФ
Карма: 166
-1-

Сообщение sanchez89 » 14 сен 2017, 07:21

Лига Чемпионов 2017/18. 1-й тур. Обзор матчей [Футбол, 13.09.2017, HDTV 1080i] - Скачать торрент

Название: Лига Чемпионов 2017/18. 1-й тур. Обзор матчей
Вид спорта: Футбол

Дата выхода: 13.09.2017
Продолжительность: 00:42:36
Комментаторы: Дмитрий Жичкин
Язык комментариев:
Перевод: Не требуется
Субтитры: Нет
Описание: Телеканал "Матч! Футбол 1" предлагает обзор матчей 1-го тура Лиги Чемпионов 2017/18, прошедших 13 сентября 2017 года.
Релиз группа:
Rip by nickb123456
Качество: HDTV 1080i
Формат файла: TS
Видео кодек: x264
Аудио кодек: MPa
Видео: AVC, 1920x1080 (16:9), 25.000 fps, 9062 kbps, 0.175 bit/pixel
Аудио: MPEG Audio Layer 2, 48 kHz, 2 ch, 192 kbps
MediaInfo: Общее
Идентификатор : 1 (0x1)
Полное имя : C:\Video\Лига Чемпионов 2017-18 Групповой турнир 1-й тур 2-й день Обзор матчей Матч! Футбол 1 HD.ts
Формат : MPEG-TS
Размер файла : 2,90 Гбайт
Продолжительность : 42 м.
Режим общего битрейта : Переменный
Общий поток : 9737 Кбит/сек

Видео
Идентификатор : 325 (0x145)
Идентификатор меню : 1 (0x1)
Формат : AVC
Формат/Информация : Advanced Video Codec
Профиль формата : High@L4.0
Параметр CABAC формата : Да
Параметр ReFrames формата : 4 кадра
Параметр GOP формата : M=4, N=28
Идентификатор кодека : 27
Продолжительность : 42 м.
Битрейт : 9062 Кбит/сек
Ширина : 1920 пикселей
Высота : 1080 пикселей
Соотношение сторон : 16:9
Частота кадров : 25,000 кадров/сек
Стандарт вещания : Component
Цветовое пространство : YUV
Субдискретизация насыщенности : 4:2:0
Битовая глубина : 8 бит
Тип развёртки : Чересстрочная
Порядок развёртки : Верхнее поле первое
Бит/(Пиксели*Кадры) : 0.175
Размер потока : 2,70 Гбайт (93%)
Основные цвета : BT.709
Характеристики трансфера : BT.709
Коэффициенты матрицы : BT.709
colour_range : Limited

Аудио
Идентификатор : 405 (0x195)
Идентификатор меню : 1 (0x1)
Формат : MPEG Audio
Версия формата : Version 1
Профиль формата : Layer 2
Идентификатор кодека : 3
Продолжительность : 42 м.
Вид битрейта : Постоянный
Битрейт : 192 Кбит/сек
Каналы : 2 канала
Частота : 48,0 КГц
Метод сжатия : С потерями
Размер потока : 58,5 Мбайт (2%)
Язык : Russian

Как качать, Как раздавать - Правила и инструкции
Торрент14 сен 2017, 07:21 [ 14 сен 2017, 07:21 ]

СКАЧАТЬ с просмотром рекламы
СтатусПроверен
.torrent скачан499 раз
Размер2.9 ГБ (3 111 738 964)

Вернуться в Футбол



Кто сейчас на конференции

Сейчас этот форум просматривают: нет зарегистрированных пользователей

Ресурс не предоставляет электронные версии произведений, а занимается лишь коллекционированием и каталогизацией ссылок, присылаемых и публикуемых на форуме нашими читателями. Если вы являетесь правообладателем какого-либо представленного материала и не желаете чтобы ссылка на него находилась в нашем каталоге, свяжитесь с нами и мы незамедлительно удалим её. Файлы для обмена на трекере предоставлены пользователями сайта, и администрация не несёт ответственности за их содержание. Просьба не заливать файлы, защищенные авторскими правами, а также файлы нелегального содержания!