Гадкий я 3 / Despicable Me 3 [2017, мультфильм, фантастика, боевик, комедия, приключения, семейный, WEBRip (1080p)] (Трейлер) - Скачать торрент бесплатно

Трейлеры новых фильмов

Модераторы: Журналист Riper.AM, Союз Риперов

Поделиться ВКонтакте Поделиться Facebook Поделиться Twitter Поделиться Mail.RU
АвторСообщение
sanchez89
Аватара пользователя
Модератор ТВ-ШОУ
Модератор ТВ-ШОУ
 
Сообщения: 859
Зарегистрирован: 24 авг 2012, 18:41
Откуда: с. Спасское, Бугульминский район, Татарстан, РФ
Карма: 165
-1-

Сообщение sanchez89 » 21 янв 2017, 17:47

Гадкий я 3 / Despicable Me 3 [2017, мультфильм, фантастика, боевик, комедия, приключения, семейный, WEBRip (1080p)] (Трейлер) - Скачать торрент

Название: Гадкий я 3
Оригинальное название: Despicable Me 3
Год выпуска: 2017
Премьера (мир): 15 июня 2017 года
Премьера (РФ): 29 июня 2017 года
Жанр: мультфильм, фантастика, боевик, комедия, приключения, семейный
Выпущено: , Illumination Entertainment, Universal Pictures
Режиссеры: Кайл Балда, Пьер Коффан, Эрик Гуильон
Роли озвучивали: Кристен Уиг, Дженни Слейт, Стив Карелл, Миранда Косгров, Стив Куган, Расселл Брэнд, Трей Паркер, Дэна Гайер, Пьер Коффан, Майкл Битти

О фильме: Грядет третье пришествие. Многодетный суперагент, роковая красотка и бессмертные миньоны на подходе. Готовьтесь. Они будут править миром.

Качество: WEBRip (1080p)
Видео: AVC, 1920x796 (2.40:1), 25.000 fps, 6940 kbps, 0.182 bit/pixel
Аудио: AAC, 44.1 kHz, 2 ch, 128 kbps
Продолжительность: 00:02:25
Перевод: Дублированный

Общее
Полное имя : D:\Downloads\Torrent\Гадкий я 3 . Despicable Me 3 (2017) WEBRip-1080p . Трейлер.mp4
Формат : MPEG-4
Профиль формата : Base Media
Идентификатор кодека : isom
Размер файла : 123 Мбайт
Продолжительность : 2 м. 25 с.
Режим общего битрейта : Переменный
Общий поток : 7072 Кбит/сек
Дата кодирования : UTC 2016-12-14 22:05:39
Дата пометки : UTC 2016-12-14 22:05:39
Программа кодирования : Lavf51.12.1

Видео
Идентификатор : 1
Формат : AVC
Формат/Информация : Advanced Video Codec
Профиль формата : High@L4.0
Параметр CABAC формата : Нет
Параметр ReFrames формата : 5 кадров
Параметр GOP формата : M=1, N=12
Идентификатор кодека : avc1
Идентификатор кодека/Информация : Advanced Video Coding
Продолжительность : 2 м. 25 с.
Битрейт : 6940 Кбит/сек
Ширина : 1920 пикселей
Высота : 796 пикселей
Соотношение сторон : 2,40:1
Режим частоты кадров : Постоянный
Частота кадров : 25,000 кадров/сек
Цветовое пространство : YUV
Субдискретизация насыщенности : 4:2:0
Битовая глубина : 8 бит
Тип развёртки : Прогрессивная
Бит/(Пиксели*Кадры) : 0.182
Размер потока : 120 Мбайт (98%)
Дата кодирования : UTC 2016-12-14 22:05:39
Дата пометки : UTC 2016-12-14 22:05:39

Аудио
Идентификатор : 2
Формат : AAC
Формат/Информация : Advanced Audio Codec
Профиль формата : LC
Идентификатор кодека : 40
Продолжительность : 2 м. 25 с.
Вид битрейта : Переменный
Битрейт : 128 Кбит/сек
Каналы : 2 канала
Расположение каналов : Front: L R
Частота : 44,1 КГц
Метод сжатия : С потерями
Размер потока : 2,22 Мбайт (2%)
Дата кодирования : UTC 2016-12-14 22:05:39
Дата пометки : UTC 2016-12-14 22:05:39
Как качать, Как раздавать - Правила и инструкции
Торрент21 янв 2017, 17:47 [ 21 янв 2017, 17:47 ]
СтатусНепроверенный
.torrent скачан47577 раз
Размер122.52 МБ (128 471 018)

Вернуться в Трейлеры



Кто сейчас на конференции

Сейчас этот форум просматривают: нет зарегистрированных пользователей

Ресурс не предоставляет электронные версии произведений, а занимается лишь коллекционированием и каталогизацией ссылок, присылаемых и публикуемых на форуме нашими читателями. Если вы являетесь правообладателем какого-либо представленного материала и не желаете чтобы ссылка на него находилась в нашем каталоге, свяжитесь с нами и мы незамедлительно удалим её. Файлы для обмена на трекере предоставлены пользователями сайта, и администрация не несёт ответственности за их содержание. Просьба не заливать файлы, защищенные авторскими правами, а также файлы нелегального содержания!